<?xml version="1.0" standalone="no"?>
<!DOCTYPE svg PUBLIC "-//W3C//DTD SVG 1.1//EN" "http://www.w3.org/Graphics/SVG/1.1/DTD/svg11.dtd">
<svg xmlns="http://www.w3.org/2000/svg">
<metadata>Copyright (C) 2025 by original authors @ fontello.com</metadata>
<defs>
<font id="lucide-elementor" horiz-adv-x="1000" >
<font-face font-family="lucide-elementor" font-weight="400" font-stretch="normal" units-per-em="1000" ascent="850" descent="-150" />
<missing-glyph horiz-adv-x="1000" />
<glyph glyph-name="volume" unicode="&#xe800;" d="M413 723c-19-4-21-6-103-87l-77-77-63-1c-70-1-71-1-89-13-12-7-25-21-30-32-9-18-9-16-9-163 0-148 0-145 9-164 6-11 24-29 35-35 18-9 23-9 85-9 39 0 59-1 61-2 2-1 38-36 79-77 44-44 78-76 82-79 42-23 95 0 105 47 2 6 2 113 2 324l-1 316-6 12c-14 31-48 48-80 40m4-373v-274l-64 64c-67 66-76 74-96 80-10 4-15 4-72 5l-60 0v250h56c51 0 58 0 70 3 25 7 27 8 99 80 36 36 66 65 66 65 1 0 1-123 1-273" horiz-adv-x="1000" />

<glyph glyph-name="volume-1" unicode="&#xe801;" d="M413 723c-19-4-21-6-103-87l-77-77-63-1c-70-1-71-1-89-13-12-7-25-21-30-32-9-18-9-16-9-163 0-148 0-145 9-164 6-11 24-29 35-35 18-9 23-9 85-9 39 0 59-1 61-2 2-1 38-36 79-77 44-44 78-76 82-79 42-23 95 0 105 47 2 6 2 113 2 324l-1 316-6 12c-14 31-48 48-80 40m4-373v-274l-64 64c-67 66-76 74-96 80-10 4-15 4-72 5l-60 0v250h56c51 0 58 0 70 3 25 7 27 8 99 80 36 36 66 65 66 65 1 0 1-123 1-273m236 164a42 42 0 0 1-27-34c-2-12 1-19 12-37 21-32 28-56 28-93 0-37-7-61-28-92-11-19-14-26-12-38 3-30 38-47 63-29 15 9 36 45 48 78 15 44 17 97 6 142-11 41-37 89-55 100-9 5-26 7-35 3" horiz-adv-x="1000" />

<glyph glyph-name="volume-2" unicode="&#xe802;" d="M413 723c-19-4-21-6-103-87l-77-77-63-1c-70-1-71-1-89-13-12-7-25-21-30-32-9-18-9-16-9-163 0-148 0-145 9-164 6-11 24-29 35-35 18-9 23-9 85-9 39 0 59-1 61-2 2-1 38-36 79-77 44-44 78-76 82-79 42-23 95 0 105 47 2 6 2 113 2 324l-1 316-6 12c-14 31-48 48-80 40m380-69c-21-7-33-31-26-52 2-5 7-12 16-22 49-54 76-109 88-179 4-23 4-75 0-100-11-70-39-127-88-181-17-18-21-31-16-48 6-17 20-27 37-28 16-1 25 3 41 21 59 62 96 139 109 227 5 27 5 89 0 116-13 88-50 164-108 227-19 20-35 26-53 19m-376-304v-274l-64 64c-67 66-76 74-96 80-10 4-15 4-72 5l-60 0v250h56c51 0 58 0 70 3 25 7 27 8 99 80 36 36 66 65 66 65 1 0 1-123 1-273m236 164a42 42 0 0 1-27-34c-2-12 1-19 12-37 21-32 28-56 28-93 0-37-7-61-28-92-11-19-14-26-12-38 3-30 38-47 63-29 15 9 36 45 48 78 15 44 17 97 6 142-11 41-37 89-55 100-9 5-26 7-35 3" horiz-adv-x="1000" />

<glyph glyph-name="volume-off" unicode="&#xe803;" d="M70 806c-10-4-18-10-23-19-4-7-4-10-4-20s0-14 4-20c3-4 45-48 94-97 49-49 89-90 89-90 0-1-26-2-58-2-65 0-72-1-89-11-12-7-27-23-32-34-9-18-9-16-9-163 0-148 0-145 9-164 6-11 24-29 35-35 18-9 23-9 85-9 39 0 59-1 61-2 2-1 38-36 79-77 44-44 78-76 82-79 42-23 95 0 105 46 1 5 2 55 2 134l0 127 196-196c108-108 199-198 202-199 5-3 10-4 19-4 10 0 13 1 20 5 20 12 27 38 16 57-3 4-194 196-426 428-389 389-422 421-429 424a42 42 0 0 1-28 0m347-81c-27-5-49-26-49-47 0-14 3-21 13-31 9-9 16-12 29-12h7v-7c0-11 3-19 11-28 20-23 55-17 68 11 4 7 4 11 4 31 0 12-1 26-2 30a74 74 0 0 1-45 50 84 84 0 0 1-36 3m377-70c-11-3-22-14-27-27-5-17-1-29 16-48 49-54 76-108 88-179 4-21 4-79 1-98a390 390 0 0 0-19-71c-10-28-11-31-7-43 5-17 22-31 38-31 16 0 32 10 38 23 12 23 25 68 32 104 3 18 3 27 3 63 0 31 0 46-2 59-11 69-34 128-70 179-20 29-49 61-60 66a43 43 0 0 1-31 3m-141-141a42 42 0 0 1-27-35c-2-11 1-20 10-33 14-21 22-39 28-66 4-19 5-23 14-31 10-8 17-11 28-11 25 0 45 23 42 47a313 313 0 0 1-17 61c-13 31-31 58-43 65-9 5-26 7-35 3m-298-78l62-62v-298l-64 64c-67 66-76 74-96 80-10 4-15 4-72 5l-60 0v250h56c51 0 58 0 70 3 13 4 30 12 35 17 2 2 4 3 5 3 1 0 30-28 64-62" horiz-adv-x="1000" />

<glyph glyph-name="volume-x" unicode="&#xe804;" d="M413 723c-19-4-21-6-103-87l-77-77-63-1c-70-1-71-1-89-13-12-7-25-21-30-32-9-18-9-16-9-163 0-148 0-145 9-164 6-11 24-29 35-35 18-9 23-9 85-9 39 0 59-1 61-2 2-1 38-36 79-77 44-44 78-76 82-79 42-23 95 0 105 47 2 6 2 113 2 324l-1 316-6 12c-14 31-48 48-80 40m4-373v-274l-64 64c-67 66-76 74-96 80-10 4-15 4-72 5l-60 0v250h56c51 0 58 0 70 3 25 7 27 8 99 80 36 36 66 65 66 65 1 0 1-123 1-273m236 164c-9-3-18-10-23-19-3-6-4-9-4-20 0-9 1-14 3-18 2-3 26-29 53-57l50-50-50-50c-27-28-51-53-53-56-9-19-2-44 17-55 7-4 10-5 21-5 9 0 14 1 18 3 3 2 29 26 56 54l51 50 50-50c28-28 53-52 56-53 19-10 44-2 55 17 4 6 5 9 5 20 0 9-1 14-4 18-1 4-25 29-53 57l-50 50 50 50c28 28 52 54 53 57 3 4 4 9 4 18 0 11-1 14-5 20a42 42 0 0 1-51 19c-7-2-14-9-59-54l-51-51-52 51c-45 45-52 52-59 54a42 42 0 0 1-28 0" horiz-adv-x="1000" />

<glyph glyph-name="vote" unicode="&#xe805;" d="M271 682c-27-5-46-15-67-36-17-17-25-30-32-51l-4-12-1-242 0-241h-44c-48 0-54-1-65-9-4-3-8-8-11-12-4-7-4-10-4-21 0-10 0-13 4-20 5-9 13-16 23-19 9-3 851-3 860 0 10 3 18 10 23 19 4 7 5 10 5 20 0 11-1 14-5 21a50 50 0 0 1-11 12c-10 8-17 9-65 9h-44l0 241 0 242-4 11c-14 41-45 72-85 84l-13 5-226 0c-124 0-230-1-234-1m450-84c12-4 23-15 27-27 2-7 2-37 2-240v-231h-500v231c0 161 1 234 2 238a43 43 0 0 0 28 29c4 1 88 2 219 2 187 0 215 0 222-2m-111-126c-6-2-18-13-79-74l-73-72-30 30c-28 28-31 31-40 33-11 3-15 3-25 0a43 43 0 0 1-24-19c-4-6-5-9-5-20 0-9 1-14 3-18 5-8 92-96 101-102 7-3 10-4 20-4 9 0 15 1 19 3 8 4 179 175 184 184 4 7 5 10 5 20s-1 14-5 21a42 42 0 0 1-51 18" horiz-adv-x="1000" />

<glyph glyph-name="wallet" unicode="&#xe806;" d="M188 765c-47-8-85-42-100-88l-4-13v-628l4-13c13-40 43-71 85-85l11-4 329 0c226-1 332 0 338 1 21 4 46 23 56 43 9 18 10 22 10 101l0 74 6 4c8 5 22 21 26 30 9 16 9 24 9 79 0 56-1 65-9 81-5 9-18 25-27 30l-5 3 0 73c0 79-1 85-10 103-6 12-24 29-37 35a94 94 0 0 1-24 8l-13 2 0 46c0 49-1 59-9 75-5 11-20 26-32 33-20 12 2 12-314 11-155 0-286 0-290-1m562-123v-42l-277 0-277 1-8 4c-24 15-28 46-9 66a39 39 0 0 0 16 10c6 2 48 2 281 2l274 0v-41m-574-122c8-2 29-2 333-3l324 0v-125l-53-1c-50 0-53-1-66-4a128 128 0 0 1-84-85c-6-18-6-52 0-70a129 129 0 0 1 84-85c11-4 15-4 66-5l53-1v-124l-318 0-319 1-8 4a50 50 0 0 0-12 10c-10 13-9-1-9 256 0 129 0 235 0 235 0 0 4-1 9-3m699-253v-42l-69 0-68 1-8 4c-24 15-29 46-9 66 12 12 14 12 89 12l65 0v-41" horiz-adv-x="1000" />

<glyph glyph-name="wallet-cards" unicode="&#xe807;" d="M188 765c-47-8-85-42-100-88l-4-13v-628l4-13a129 129 0 0 1 85-85l13-4h628l13 4a129 129 0 0 1 85 85l4 13v628l-4 13a129 129 0 0 1-84 85l-14 4-309 0c-170 0-313 0-317-1m617-84a37 37 0 0 0 16-10c11-11 12-19 12-51 0-25 0-27-3-26-17 5-18 5-330 5-312 0-313 0-330-5-3-1-3 1-3 26 0 32 2 40 12 51a39 39 0 0 0 16 10c12 3 597 4 610 0m0-167a37 37 0 0 0 16-10c10-10 12-19 12-48v-23h-43c-24 0-49 0-56-1-26-4-58-17-78-32-10-9-37-30-64-54-31-26-51-35-83-37-34-2-65 9-91 33a1027 1027 0 0 1-28 23 759 759 0 0 0-30 26c-20 19-40 30-68 37-15 4-19 4-71 5l-54 1v23c0 28 2 37 12 47a39 39 0 0 0 16 10c12 4 597 4 610 0m-535-166c14-4 22-8 33-19a2489 2489 0 0 1 73-61c36-28 88-45 134-43 51 3 93 21 136 58 31 27 64 53 74 58 16 8 24 9 71 9h42v-148c0-161 1-157-9-169-2-4-8-8-12-11l-8-4h-608l-8 4a50 50 0 0 0-12 10c-10 13-9 7-9 169v149l46 0c35 0 49-1 57-2" horiz-adv-x="1000" />

<glyph glyph-name="wallet-minimal" unicode="&#xe808;" d="M188 765c-47-8-85-42-100-88l-4-13v-628l4-13a129 129 0 0 1 85-85l13-4h628l13 4a129 129 0 0 1 85 85l4 13v462l-4 12a129 129 0 0 1-84 85l-14 4-261 1c-186 0-265 0-271-2-10-2-21-9-27-19-3-7-4-10-4-21 0-10 1-13 5-20 5-9 13-16 22-19 5-2 53-2 262-2 288 0 267 1 281-13 13-13 12 3 12-237 0-176 0-214-2-221a43 43 0 0 0-19-24l-8-4h-608l-8 4a50 50 0 0 0-12 10c-10 14-9-7-9 317 0 334-1 308 12 322 14 13-12 12 323 12 244 1 298 1 303 3 10 3 18 10 23 19 4 6 5 9 5 20 0 11-1 14-5 20a43 43 0 0 1-24 19c-7 2-58 3-308 3-165-1-304-1-308-2m508-459a44 44 0 0 1-24-19c-4-7-4-10-4-20 0-11 0-14 4-21 22-37 78-22 78 21a41 41 0 0 1-22 37 49 49 0 0 1-32 2" horiz-adv-x="1000" />

<glyph glyph-name="wallpaper" unicode="&#xe809;" d="M146 765c-47-8-85-42-100-88l-3-13v-461l3-13c13-41 44-71 85-85l12-4 157-1 158 0v-83h-64c-71 0-75-1-86-9-4-3-8-9-11-13-4-6-4-9-4-20 0-11 0-14 4-20 5-9 13-16 23-19 9-4 351-4 360 0 10 3 18 10 23 19 4 6 5 9 5 20 0 11-1 14-5 20a50 50 0 0 1-11 13c-11 8-15 9-86 9h-64v83l158 0 158 1 11 4c42 14 72 44 85 85l4 13v461l-4 13a129 129 0 0 1-85 85l-13 4-351 0c-193 0-355 0-359-1m700-84c12-4 23-15 27-26 2-8 2-30 2-169v-160l-55 54c-51 51-62 61-80 70-28 14-77 14-105 0-19-10-30-20-152-141l-126-126-101 1-102 0-7 5a44 44 0 0 0-20 23c-3 11-3 430 1 443 3 11 14 22 25 26 7 2 57 2 346 2 299 0 340 0 347-2m-533-83a127 127 0 0 1-100-88c-5-18-5-52 0-70a129 129 0 0 1 85-85c18-6 52-6 70 0a129 129 0 0 1 86 85c5 18 5 52 0 70-13 41-45 73-85 85-15 4-43 6-56 3m33-84c16-4 29-22 29-39 0-14-9-29-21-36-7-4-10-5-21-5s-13 1-20 5c-24 14-28 45-9 65 12 12 26 15 42 10m359-140c6-2 167-161 167-165 0-4-11-16-18-20l-8-5-185 0-185-1 93 94c52 51 96 94 98 96 11 6 26 6 38 1" horiz-adv-x="1000" />

<glyph glyph-name="wand" unicode="&#xe80a;" d="M612 806a43 43 0 0 1-23-19l-5-8v-108l5-9a42 42 0 0 1 72 0l5 9v108l-5 8a42 42 0 0 1-49 19m-167-125c-10-4-18-10-23-19-4-7-4-10-4-20s0-14 4-20c5-9 60-64 68-68 4-2 9-3 18-3 11 0 14 1 21 5 20 11 27 37 16 56-3 4-18 20-34 37-25 24-31 29-38 32a42 42 0 0 1-28 0m332-1c-6-2-14-8-38-31-16-17-31-33-33-37-12-19-5-45 15-56 7-4 10-5 21-5 10 0 13 1 20 4 9 6 63 60 67 68 3 5 4 10 4 19 0 10-1 13-5 20a42 42 0 0 1-51 18m-456-166a43 43 0 0 1-24-19c-4-6-4-9-4-20 0-11 0-14 4-20 5-9 13-16 23-19 9-3 102-3 110 0 10 3 18 10 23 19 4 6 5 9 5 20 0 11-1 14-5 20a43 43 0 0 1-24 19c-11 4-98 4-108 0m291 0a44 44 0 0 1-23-19c-4-6-5-9-5-20 0-11 1-14 5-20 22-37 78-22 78 20a41 41 0 0 1-23 37 49 49 0 0 1-32 2m209 0a43 43 0 0 1-24-19c-4-6-4-9-4-20 0-11 0-14 4-20 5-9 13-16 23-19 9-3 102-3 110 0 10 3 18 10 23 19 4 6 5 9 5 20 0 11-1 14-5 20a43 43 0 0 1-24 19c-11 4-98 4-108 0m-93-116c-9-4-18-11-23-19-3-7-4-10-4-21s1-13 4-20c6-9 60-63 68-67 5-2 10-3 19-3 10 0 13 0 20 4 20 12 27 38 16 57-2 4-18 20-34 36-25 25-31 30-38 32a42 42 0 0 1-28 1m-242-9c-8-2-20-14-201-194-111-112-194-196-196-200-4-6-5-9-5-20 0-11 1-14 5-21 12-19 37-27 57-15 9 5 388 385 392 393 2 4 3 9 3 18 0 11-1 14-5 20a43 43 0 0 1-24 19c-9 3-15 3-26 0m126-83a43 43 0 0 1-23-19l-5-8v-108l5-9a42 42 0 0 1 72 0l5 9v108l-5 8a42 42 0 0 1-49 19" horiz-adv-x="1000" />

<glyph glyph-name="wand-sparkles" unicode="&#xe80b;" d="M404 806a42 42 0 0 1-28-32c-1-7-2-7-10-9a43 43 0 0 1-27-20c-4-6-5-9-5-20 0-11 1-14 5-21 6-10 18-18 28-20 8-1 8-1 9-8 1-10 10-22 20-28 7-5 9-5 21-5s13 0 21 5c10 6 18 18 20 28 1 7 1 7 8 8 10 2 22 10 28 20 5 7 5 10 5 21 0 11 0 14-4 20a43 43 0 0 1-27 20c-9 2-9 2-10 9a42 42 0 0 1-29 32 38 38 0 0 1-25 0m388 0a112 112 0 0 1-22-8c-10-5-39-33-359-353-211-211-350-351-354-357-11-16-14-29-14-51 0-16 0-21 4-30 7-18 14-28 52-65 32-31 36-35 48-41 27-13 54-13 81 0 13 6 16 9 364 357 348 348 351 351 357 364 13 27 13 54 0 81-6 12-9 16-45 51-32 32-40 40-49 44a96 96 0 0 1-63 8m53-110c19-19 30-31 30-33 0-3-28-32-83-87l-84-83-33 32-32 33 83 84c52 52 84 83 86 83 2 0 16-12 33-29m-649-57a43 43 0 0 1-24-19c-4-7-4-9-5-35l-1-27h-22c-34 0-45-4-55-21-4-7-5-10-5-20 0-11 1-14 5-21 5-9 13-15 22-19 4-1 15-2 31-2l24 0 1-27c1-27 1-27 6-36 2-4 8-10 13-13 19-13 45-7 58 13 5 9 5 9 6 36l0 27 25 0c16 0 26 1 30 2 10 4 18 10 23 19 4 7 5 10 5 21 0 10-1 13-5 20-10 17-22 21-55 21h-23l0 27c-1 26-1 28-5 35a42 42 0 0 1-49 19m421-173l32-33-229-229c-154-154-230-229-232-229-5 0-63 58-63 63 0 2 83 86 229 232 126 125 229 228 229 228 1 0 16-14 34-32m162-160a43 43 0 0 1-24-19c-4-7-4-9-5-35l0-27h-23c-33 0-45-5-55-21-4-7-4-10-4-21 0-10 0-13 4-20 5-9 13-16 23-19 4-1 14-2 30-2l25 0 0-27c1-27 1-28 6-36 3-4 8-10 13-13 20-14 46-8 59 13 5 8 5 9 5 36l1 27 24 0c16 0 27 1 31 2 9 3 17 10 22 19 4 7 5 10 5 20 0 11-1 14-5 21-10 16-21 21-54 21h-23l-1 27c0 26-1 28-5 35a42 42 0 0 1-49 19" horiz-adv-x="1000" />

<glyph glyph-name="warehouse" unicode="&#xe80c;" d="M474 757c-13-2-346-135-366-146a124 124 0 0 1-65-91c-1-7-1-97-1-269l1-259 3-11c14-42 45-72 86-85l12-4h712l12 4c41 13 72 43 86 85l4 11 0 259c0 172 0 262-1 269a125 125 0 0 1-65 91c-22 12-353 143-367 146a131 131 0 0 1-51 0m209-150c162-65 173-70 180-76 13-13 12 7 12-271 0-205 0-249-2-255a43 43 0 0 0-19-25c-8-4-9-4-35-5l-27 0-1 235 0 236-5 8a43 43 0 0 1-24 19c-6 2-51 2-262 2s-256 0-262-2a43 43 0 0 1-24-19l-5-8 0-236-1-235-27 0c-26 1-27 1-34 5a50 50 0 0 0-13 11c-9 13-9-3-9 268 0 279-1 259 12 272 7 6 18 11 179 75a128370 128370 0 0 0 174 70c1 0 7 0 12 0 7 0 38-12 181-69m25-257v-42h-416v84h416v-42m0-167v-41h-416v83h416v-42m0-166v-42h-416v83h416v-41" horiz-adv-x="1000" />

<glyph glyph-name="washing-machine" unicode="&#xe80d;" d="M188 807c-47-8-85-42-100-89l-4-12v-712l4-12a129 129 0 0 1 85-86l13-4h628l13 4a129 129 0 0 1 85 86l4 12v712l-4 12a129 129 0 0 1-84 85l-14 5-309 0c-170 0-313-1-317-1m617-84c11-4 22-15 26-27 2-7 2-48 2-346 0-281 0-339-2-345a43 43 0 0 0-19-25l-8-4h-608l-8 4a50 50 0 0 0-12 11c-10 13-9-5-9 293v274l45 0c49 1 53 1 64 9 3 3 8 8 10 13 4 6 5 9 5 20 0 11-1 14-5 20a50 50 0 0 1-10 13c-11 8-17 9-65 9h-44v23c0 29 2 37 12 47a39 39 0 0 0 16 10c12 4 597 4 610 1m-109-84a44 44 0 0 1-24-19c-4-6-4-9-4-20 0-11 0-14 4-20 22-37 78-22 78 20a41 41 0 0 1-22 37 49 49 0 0 1-32 2m-230-83c-29-5-53-12-75-23-71-36-119-98-136-176-6-26-6-72 0-97 22-101 96-175 197-197 25-5 71-5 96 0 52 11 94 34 130 71 35 35 56 76 67 126 6 25 6 71 0 97-17 79-65 141-137 177-41 20-97 29-142 22m59-83c61-10 113-53 133-113 4-12 9-38 9-52a177 177 0 0 0-17-72l-5-10-3 12a142 142 0 0 1-79 97c-20 9-34 13-59 15-27 2-40 8-52 24a63 63 0 0 0 15 91c15 10 31 12 58 8m-160-114a146 146 0 0 1 117-91l27-3c16-2 28-9 39-21 27-33 13-85-27-98-26-9-71-1-106 19-33 20-60 54-73 92a213 213 0 0 0-9 51c0 23 7 52 18 73l5 10 2-12c2-6 5-15 7-20" horiz-adv-x="1000" />

<glyph glyph-name="watch" unicode="&#xe80e;" d="M418 806c-46-8-86-46-97-90a4106 4106 0 0 1-17-86c-16-83-14-78-31-97-31-37-53-88-62-140-2-18-2-68 0-85 10-59 32-106 73-154 6-7 6-7 23-89 9-45 18-87 20-92 13-35 42-62 81-75 9-4 14-4 89-4 90-1 93-1 118 12 31 16 55 43 64 74 2 5 10 46 19 91l17 83 5 6c21 21 42 57 54 91 13 35 17 60 17 99s-4 64-17 99c-13 35-30 64-58 97-6 6-6 7-22 87-19 96-22 106-37 125-21 26-47 43-77 48-17 3-146 3-162 0m153-84c9-3 20-13 23-21 3-7 18-79 17-80 0-1-7 1-14 4-32 11-60 16-97 16-37 0-65-5-97-16-8-3-15-5-15-5-1 1 13 72 15 79 3 9 15 20 24 23 11 4 132 4 144 0m-48-165a209 209 0 0 0 172-134c17-45 17-103-1-148a212 212 0 0 0-127-122c-23-8-39-10-67-10s-43 2-67 10a210 210 0 0 0-135 145c-10 39-7 89 7 125a208 208 0 0 0 218 134m-36-84a43 43 0 0 1-23-19l-5-8 0-51c-1-44 0-51 2-59 2-7 7-12 28-34 14-14 28-27 32-30 19-11 45-4 57 16 4 7 5 10 5 20-1 17-3 20-24 42l-17 18-1 39c0 39 0 39-5 47a42 42 0 0 1-49 19m128-392c0-4-15-75-17-80a41 41 0 0 0-20-20c-9-4-9-4-76-4s-68 0-76 4a41 41 0 0 0-20 21c-3 5-18 77-17 78a67 67 0 0 0 12-4c30-12 61-17 99-17 39 0 69 6 100 18 13 4 15 5 15 4" horiz-adv-x="1000" />

<glyph glyph-name="waves" unicode="&#xe80f;" d="M372 682a170 170 0 0 1-67-22c-7-4-23-15-37-26-14-10-30-21-35-24-26-13-64-13-90-1a140 140 0 0 0-20 13c-24 19-32 22-49 18a41 41 0 0 1-19-70c10-10 37-29 49-35 56-28 133-23 183 10 6 4 21 15 33 24 36 27 44 30 78 30 32 0 40-3 77-32 12-9 26-20 33-24 55-36 141-35 196 2 5 4 21 15 33 24 36 27 44 30 77 30 31 0 40-3 71-27 18-14 29-17 45-11 26 9 36 39 21 63-6 9-37 32-57 41-20 10-36 14-62 17-35 4-72-3-100-17-15-7-25-14-53-35a260 260 0 0 0-30-20c-25-13-64-13-89-1a140 140 0 0 0-20 13c-38 29-47 36-62 43-32 15-67 21-106 17m0-250a170 170 0 0 1-67-22c-7-4-23-15-37-26-14-10-30-21-35-24-26-13-64-13-90-1a140 140 0 0 0-20 13c-24 19-32 22-49 18a41 41 0 0 1-19-70c10-10 37-29 49-35 56-28 133-23 183 10 6 4 21 15 33 24 36 27 44 30 78 30 32 0 40-3 77-32 12-9 26-20 33-24 55-36 141-35 196 2 5 4 21 15 33 24 36 27 44 30 77 30 31 0 40-3 71-27 18-14 29-17 45-11 26 9 36 39 21 63-6 9-37 32-57 41-20 10-36 14-62 17-35 4-72-3-100-17-15-7-25-14-53-35a260 260 0 0 0-30-20c-25-13-64-13-89-1a140 140 0 0 0-20 13c-38 29-47 36-62 43-32 15-67 21-106 17m0-250a170 170 0 0 1-67-22c-7-4-23-15-37-26-14-10-30-21-35-24-26-13-64-13-90-1a140 140 0 0 0-20 13c-24 19-32 22-49 18a41 41 0 0 1-19-70c10-10 37-29 49-35 56-28 133-23 183 10 6 4 21 15 33 24 36 27 44 30 78 30 32 0 40-3 77-32 12-9 26-20 33-24 55-36 141-35 196 2 5 4 21 15 33 24 36 27 44 30 77 30 31 0 40-3 71-27 18-14 29-17 45-11 26 9 36 39 21 63-6 9-37 32-57 41-20 10-36 14-62 17-35 4-72-3-100-17-15-7-25-14-53-35a260 260 0 0 0-30-20c-25-13-64-13-89-1a140 140 0 0 0-20 13c-38 29-47 36-62 43-32 15-67 21-106 17" horiz-adv-x="1000" />

<glyph glyph-name="waves-ladder" unicode="&#xe810;" d="M354 682c-46-8-84-41-99-88l-4-11-1-232 0-231-10-6c-13-8-28-12-47-13-29-2-48 4-70 21-24 19-32 22-49 18a41 41 0 0 1-19-70c10-10 37-29 49-35 41-20 95-24 140-10 25 8 38 16 78 46 34 25 42 28 76 28 32 0 40-3 77-32 12-9 26-20 33-24 41-27 102-34 153-18 25 8 38 16 78 46 33 25 42 28 75 28 31 0 40-3 71-27 7-5 16-11 20-12a42 42 0 0 1 53 36c2 18-5 29-29 47-21 16-46 29-65 34-34 9-78 8-110-3l-4-1v195c0 218-1 206 12 219 8 8 15 11 31 13 15 2 25 7 32 17a41 41 0 0 1-24 65c-17 4-49-2-69-14a131 131 0 0 1-60-74c-4-10-4-16-5-44l-1-33h-333v23c0 28 3 37 12 47 9 8 15 11 31 13 15 2 25 7 32 17a41 41 0 0 1-21 64c-8 3-20 3-33 1m313-290v-42h-334v83h334v-41m0-198v-74l-10-6c-13-8-28-12-48-13-28-2-47 4-69 21-38 29-47 36-62 43a198 198 0 0 1-30 12c-35 9-78 8-111-3l-4-1v94h334v-73" horiz-adv-x="1000" />

<glyph glyph-name="waypoints" unicode="&#xe811;" d="M483 807c-37-5-74-25-96-52a158 158 0 0 1-23-42c-14-37-12-82 5-115l3-5-57-57c-32-32-58-57-59-57a196 196 0 0 1-38 13c-16 4-45 4-60 1-78-17-128-92-114-170a145 145 0 0 1 144-118 145 145 0 0 1 136 93l4 10h345l5-14 6-14-57-57c-31-31-57-56-58-56-1 0-7 2-12 5-17 7-35 11-57 11-25 0-41-4-63-15-52-25-82-73-82-130 0-36 12-69 35-95a145 145 0 0 1 221 0 141 141 0 0 1 34 95c0 24-4 40-16 68 0 1 25 27 57 59l57 57 5-3c34-17 80-19 117-5a147 147 0 0 1 93 136c0 68-49 128-116 143-14 3-44 3-59 0-48-11-89-46-106-91l-4-10h-345l-6 14-6 14 57 57 57 57 13-5a146 146 0 0 1 193 81 148 148 0 0 1 0 105 149 149 0 0 1-46 62c-13 10-40 24-57 27-12 3-41 5-50 3m31-84c13-3 26-11 34-22 23-28 16-71-14-91-11-7-19-9-34-9-15 0-23 2-34 9-37 25-37 81 1 105 14 9 29 12 47 8m-304-315c29-12 44-39 38-70-6-36-46-59-82-46-53 20-54 94-1 116 7 3 12 4 23 4 10 0 15-1 22-4m625 0c29-12 44-39 38-70-4-28-30-50-60-50-30 0-56 21-61 50-7 40 21 74 61 74 10 0 15-1 22-4m-321-310c13-3 26-11 34-22 23-28 16-71-14-91-11-7-19-9-34-9-15 0-23 2-34 9-37 25-37 81 1 105 8 6 22 10 32 10 3 0 10-1 15-2" horiz-adv-x="1000" />

<glyph glyph-name="webcam" unicode="&#xe812;" d="M473 807c-55-5-94-16-137-37a370 370 0 0 1-172-171 371 371 0 0 1 0-331 370 370 0 0 1 172-171c35-18 72-29 107-34l15-2 0-43 0-43h-85c-93 0-95 0-107-9-3-3-8-8-11-13-3-6-4-9-4-20 0-10 1-13 5-20 5-9 13-16 22-19 9-3 435-3 444 0 9 3 17 10 23 19 4 7 4 10 4 20 0 11 0 14-4 20a50 50 0 0 1-11 13c-12 9-14 9-107 9h-85l0 43 1 43 15 2c61 9 127 38 178 79 7 6 20 18 29 26a374 374 0 0 1 72 430 375 375 0 0 1-282 206c-17 3-69 5-82 3m73-86c125-19 225-120 243-247 2-19 2-62 0-81-19-128-117-227-246-248-18-3-68-3-85 0-130 21-228 120-246 248-5 31-3 78 5 110a293 293 0 0 0 214 214c12 2 30 5 50 7 11 1 49-1 65-3m-73-123c-47-8-92-39-116-79a166 166 0 0 1 81-240 166 166 0 0 1 216 92 165 165 0 0 1 0 124 166 166 0 0 1-129 103 155 155 0 0 1-52 0m49-84a84 84 0 0 0 60-68c4-27-4-51-23-71-17-17-36-25-59-25-21 0-40 7-56 22-55 52-19 145 56 145 6 0 16-2 22-3" horiz-adv-x="1000" />

<glyph glyph-name="webhook" unicode="&#xe813;" d="M469 806c-46-7-95-34-124-68-60-69-69-162-24-242 22-39 28-57 27-76-1-11-2-13-68-136-37-69-69-127-70-130-9-27 15-56 44-54 10 1 22 8 28 15 9 11 139 254 144 268 4 12 5 18 5 35 2 32-6 60-24 93-27 52-30 61-30 90 0 20 3 35 12 53 13 27 31 45 57 58 19 9 31 12 55 12 22 0 35-3 52-11 22-10 40-26 54-48 13-19 23-25 40-25a40 40 0 0 1 27 10c10 9 13 17 13 31 1 10 0 13-5 22-27 50-80 88-139 101-17 4-55 5-74 2m17-167c-15-5-28-22-28-39 0-4 2-10 3-15 6-15 137-252 145-262 16-19 40-35 67-44 22-8 37-10 72-12 20-1 31-3 41-6 39-11 72-44 84-83 3-12 4-17 4-36 0-19-1-25-4-36a128 128 0 0 0-84-84c-7-2-20-4-29-5-10-1-20-2-22-3a45 45 0 0 1-21-19c-4-6-5-9-5-20 0-11 1-14 5-21 5-9 15-17 25-19 9-3 34-1 52 2a216 216 0 0 1 108 60 214 214 0 0 1 56 105c4 19 4 60 0 80-12 55-44 102-88 132-34 22-61 31-100 34-45 4-55 5-67 10-26 9-20 1-97 140-47 87-69 127-74 131-11 12-26 15-43 10m-391-374c-9-3-19-11-25-20-36-61-37-143-2-204 11-20 19-30 37-48 31-31 68-50 115-57 61-10 128 11 174 55 16 16 26 29 39 52 17 27 32 44 48 53l7 3 135 1c127 1 137 1 143 4 15 7 26 23 26 39 0 10-6 22-14 30-11 11-4 10-155 10-152 0-150 1-174-10-35-17-59-41-93-97-33-54-102-74-160-47-45 22-74 71-70 120 1 18 5 29 14 49 7 15 8 20 8 27a42 42 0 0 1-23 38c-7 3-22 4-30 2" horiz-adv-x="1000" />

<glyph glyph-name="webhook-off" unicode="&#xe814;" d="M70 806c-10-4-18-10-23-19-4-7-4-10-4-20 0-9 1-14 3-19 1-3 70-72 151-154l149-149 1-9c1-9 1-16-2-26-1-3-31-60-67-127-36-67-66-125-67-128-10-28 14-57 43-55 10 1 22 8 28 15 5 7 136 252 136 255 0 2 43-40 95-92l94-94-66-1c-65-1-65-1-78-5-40-13-70-41-106-99-15-23-34-39-56-49-71-29-150 9-169 83-5 17-5 44-1 60 1 6 6 18 10 27 11 24 10 39-4 54-16 15-37 17-55 4-5-3-8-8-14-19-17-32-24-61-23-96a202 202 0 0 1 61-146c24-24 47-38 79-49 72-25 149-9 206 43 15 13 26 28 40 49 14 23 21 31 33 42 19 18 10 17 126 18l101 0 40-40c45-45 44-43 23-43-18 0-32-8-40-22-4-6-5-9-5-20 0-11 1-14 5-20 8-15 22-22 41-22 22 0 51 6 73 15l11 4 27-27c14-14 29-28 32-29 5-3 10-4 19-4 10 0 13 1 20 5 20 12 27 38 16 57-3 4-194 196-426 428-389 389-422 421-429 424a42 42 0 0 1-28 0m412 1a209 209 0 0 1-125-58c-17-16-22-24-23-36a41 41 0 0 1 54-44c7 2 13 7 25 18 28 26 53 37 88 37 45 0 83-21 107-60 11-17 23-24 39-24a40 40 0 0 1 27 10c10 9 13 17 14 31 0 11-1 13-8 24-29 51-85 90-142 99a224 224 0 0 1-56 3m3-168c-19-7-31-32-24-52 3-10 29-52 36-59 27-26 73-3 69 35-1 8-3 13-18 37-18 30-22 35-36 39a40 40 0 0 1-27 0m276-292c-21-7-33-32-25-52 7-18 15-23 41-30 11-2 22-6 26-8 37-19 61-51 70-92 3-15 7-23 15-30a35 35 0 0 1 26-10c17 0 29 7 37 21 6 10 7 20 2 41-16 80-80 143-162 161-14 3-21 3-30-1" horiz-adv-x="1000" />

<glyph glyph-name="weight" unicode="&#xe815;" d="M473 806c-92-14-155-105-136-196 3-16 13-44 17-47 0-1 1-3 1-3 0-1-21-2-46-2-26 0-51 0-57-1-44-8-84-40-98-81-4-12-106-385-109-396-6-29 3-68 21-93 19-26 41-41 72-50 11-3 21-3 363-3 342 0 352 0 363 3 62 17 101 75 93 136-1 9-22 85-57 210-63 223-60 214-83 237-15 15-27 23-44 29-18 8-31 9-81 9-26 0-47 1-47 2 0 0 1 2 2 3 3 3 13 32 16 47a164 164 0 0 1-9 94 166 166 0 0 1-129 102 155 155 0 0 1-52 0m49-84a84 84 0 0 0 53-117c-7-13-24-31-36-37a86 86 0 0 0-59-7c-29 7-53 31-60 59a83 83 0 0 0 102 102m223-251c7-4 16-12 19-18 2-2 27-90 56-194 59-209 58-204 50-220a40 40 0 0 0-21-19c-7-3-20-3-347-3-229 0-341 0-346 1-15 5-29 23-29 39 0 5 17 72 51 195 29 103 53 191 55 195 1 5 5 11 10 16 13 13-7 12 259 12 228-1 237-1 243-4" horiz-adv-x="1000" />

<glyph glyph-name="wheat" unicode="&#xe816;" d="M808 807c-67-8-130-52-160-112-3-6-5-11-5-11 0 0-18 17-40 38-34 34-40 40-47 42a41 41 0 0 1-29 0c-7-2-13-8-48-43-22-22-44-45-49-52a219 219 0 0 1-29-59c-2-8-5-14-5-14a140 140 0 0 0-11 2 40 40 0 0 1-36-8c-13-10-76-75-85-87a217 217 0 0 1-30-60c-2-7-4-14-5-14a140 140 0 0 0-11 3 40 40 0 0 1-36-9c-12-10-75-74-85-87a216 216 0 0 1-17-28 184 184 0 0 1 0-166c11-21 21-34 47-62l22-22-50-50c-28-28-52-53-53-56-10-19-2-44 17-55 7-4 10-5 20-5 9 0 15 1 19 4 3 1 28 25 56 53l50 50 22-22c13-12 27-25 33-29a191 191 0 0 1 86-35c22-4 30-4 53 0a192 192 0 0 1 86 35c14 11 85 82 90 90 5 9 7 23 3 34-3 10-3 10 1 10 6 0 34 10 48 18 8 4 19 11 24 15 15 11 86 81 90 90 6 9 7 22 4 33-4 11-4 10 1 10 6 0 33 11 48 18 8 4 18 11 24 15 15 12 85 82 90 91 4 6 5 9 5 20 0 10-1 13-5 20-2 4-21 24-41 44-20 20-36 36-36 37l15 7c53 29 92 81 106 143 2 13 3 23 3 75v61l-5 8a43 43 0 0 1-24 19c-9 3-98 3-121 1m67-114c-1-28-2-34-5-45a128 128 0 0 0-84-85c-10-3-17-4-45-4l-33-1 1 32c1 28 1 34 5 46a126 126 0 0 0 99 87c4 1 20 2 35 2l27 0 0-32m-310-51c32-33 41-50 41-84 0-34-9-50-41-84l-23-23-23 23c-33 34-41 50-41 84 0 34 8 51 40 84 13 13 23 23 24 23 0 0 11-10 23-23m-166-167c32-32 40-49 40-83 0-34-8-51-41-84l-23-24-23 24c-33 33-41 50-41 84 0 34 8 51 41 83 12 13 22 23 23 23 1 0 11-10 24-23m338-23c19-5 31-13 56-37l23-23-21-21c-24-24-36-33-54-39-11-4-16-4-33-4-35 0-52 8-86 43l-21 21 23 23c24 23 35 31 54 37 15 5 41 5 59 0m-505-143c32-33 40-50 40-84 0-34-8-51-41-84l-23-23-23 23c-32 33-40 50-40 84 0 34 8 51 40 84 12 12 23 23 23 23 1 0 12-11 24-23m338-23c19-6 31-14 56-38l23-23-21-21c-24-24-35-32-54-38-11-4-16-5-32-5-35 0-53 9-87 43l-21 21 24 23c23 23 35 31 53 37 16 5 42 5 59 1m-167-167c20-5 31-13 56-38l24-22-21-21c-24-25-36-33-54-39-12-4-17-5-33-5-35 0-52 9-87 44l-20 21 23 22c23 24 35 32 53 37 16 6 42 6 59 1" horiz-adv-x="1000" />

<glyph glyph-name="wheat-off" unicode="&#xe817;" d="M70 806c-10-4-18-10-23-19-4-7-4-10-4-20s0-14 4-20c3-4 54-57 116-119l112-112-9-11c-11-13-26-43-32-62-2-7-4-14-5-14a136 136 0 0 0-11 3 40 40 0 0 1-36-9c-12-10-75-74-85-87a216 216 0 0 1-17-28 184 184 0 0 1 0-166c11-21 21-34 47-62l22-22-50-50c-28-28-52-53-53-56-10-19-2-44 17-55 7-4 10-5 20-5 9 0 15 1 19 4 3 1 28 25 56 53l50 50 22-22c13-12 27-25 33-29a191 191 0 0 1 86-35c22-4 30-4 53 0a192 192 0 0 1 86 35c14 11 85 82 90 90 5 9 7 23 3 34-3 10-3 10 1 10 7 0 35 10 50 18 8 5 18 12 24 16l10 9 112-112c62-63 115-114 119-116 6-4 9-5 20-5 10 0 13 1 20 5 20 12 27 38 16 57-3 4-194 196-426 428-389 389-422 421-429 424a42 42 0 0 1-28 0m738 1c-34-4-66-17-97-39-26-18-52-49-64-75l-4-10-39 39c-34 34-41 40-48 42a40 40 0 0 1-29 0c-7-2-13-8-49-44-41-41-51-52-60-69a41 41 0 0 1 36-61c16-1 26 5 40 25 5 7 18 21 28 32l20 19 23-23c32-33 40-51 41-85a98 98 0 0 0-20-62c-12-16-14-33-4-49 10-17 31-25 48-20a87 87 0 0 1 18 10c20 13 37 19 61 19 18 0 32-4 48-12 10-5 18-12 36-29l23-23-19-20c-11-10-25-23-32-28-19-13-26-24-26-40 0-22 19-41 43-41 10 0 21 5 37 17 14 10 87 83 92 92 4 6 5 9 5 20 0 10-1 13-5 20-2 4-21 24-41 44l-36 36 14 8c55 29 93 81 107 143 2 13 3 23 3 75v61l-5 8a43 43 0 0 1-24 19c-9 3-98 3-121 1m67-114c-1-28-2-34-5-45a128 128 0 0 0-84-85c-10-3-17-4-45-4l-33-1 1 32c1 28 1 34 5 46a126 126 0 0 0 99 87c4 1 20 2 35 2l27 0 0-32m-448-349c-5-11-10-17-29-36l-23-24-23 24c-33 33-41 50-41 84 0 24 6 43 19 59l4 6 50-50 50-50-7-13m-195-35c32-33 40-50 40-84 0-34-8-51-41-84l-23-23-23 23c-32 33-40 50-40 84 0 34 8 51 40 84 12 12 23 23 23 23 1 0 12-11 24-23m326-76c56-56 52-49 35-59-24-14-57-17-84-8-18 6-30 14-54 38l-21 21 24 23c18 18 25 24 35 29 7 4 13 6 13 6 1 0 24-22 52-50m-155-114c20-5 31-13 56-38l24-22-21-21c-24-25-36-33-54-39-12-4-17-5-33-5-35 0-52 9-87 44l-20 21 23 22c23 24 35 32 53 37 16 6 42 6 59 1" horiz-adv-x="1000" />

<glyph glyph-name="whole-word" unicode="&#xe818;" d="M571 598a43 43 0 0 1-24-19l-4-8-1-176c0-115 0-177 1-181 3-10 11-20 20-25 7-4 10-5 20-5s14 1 21 5c4 3 10 8 12 11 5 7 7 8 12 4 2-1 10-5 18-8a166 166 0 0 1 217 92 165 165 0 0 1 0 124 166 166 0 0 1-129 102 142 142 0 0 1-51 0 152 152 0 0 1-47-14 104 104 0 0 0-10-5c0 0-1 17-1 38-1 38-1 38-5 46a42 42 0 0 1-49 19m-306-84c-47-7-92-38-116-79a166 166 0 0 1 81-239 165 165 0 0 1 124 0c8 3 16 7 18 8 5 4 7 3 12-4 2-3 8-8 12-11 7-4 10-5 21-5s13 1 20 5c9 5 17 15 20 25 1 4 1 53 1 140l0 134-5 7c-7 13-22 22-36 22-13 0-31-10-37-21-1-3-2-3-16 4-20 9-28 11-47 14a155 155 0 0 1-52 0m49-84a84 84 0 0 0 60-67c4-27-4-52-24-71-17-17-35-25-58-25-22 0-40 7-56 22-56 52-20 144 56 144 6 0 15-1 22-3m416 0a84 84 0 0 0 60-67c5-27-4-52-23-71-17-17-36-25-59-25-21 0-40 7-56 22-55 52-19 144 56 144 6 0 16-1 22-3m-659-249a43 43 0 0 1-24-19c-4-8-4-9-5-38-1-34 1-44 8-59 7-13 25-32 38-39 19-10-9-9 412-9s393-1 412 9c13 7 31 26 38 39 7 15 9 25 8 59 0 29-1 30-5 38a42 42 0 0 1-73 0c-4-7-4-9-5-34l-1-27-374-1-375 0 0 27c-1 26-1 28-5 35a42 42 0 0 1-49 19" horiz-adv-x="1000" />

<glyph glyph-name="wifi" unicode="&#xe819;" d="M454 682c-137-11-260-58-366-142-28-21-42-36-45-45-7-27 13-54 40-54 13 0 20 3 36 17 72 61 151 102 239 124 49 13 87 17 142 17 54 0 91-4 139-16 89-21 169-63 242-125 16-14 23-17 36-17 27 0 46 26 40 53-2 7-4 10-14 20-16 16-47 40-75 59-91 59-187 94-296 106-27 3-92 5-118 3m8-209c-104-9-202-52-274-121-21-20-26-36-17-54 7-16 21-25 38-25 13 0 21 4 39 21a375 375 0 0 0 162 87c32 7 53 10 90 10 62 0 109-11 164-38 35-17 61-35 93-63 15-13 22-17 35-17 17 0 30 9 37 25 9 18 4 34-16 53-65 63-154 105-247 119-26 4-79 6-104 3m10-208a249 249 0 0 1-124-50c-27-21-35-32-35-50 0-18 12-34 29-39 11-3 14-3 24 0 6 2 12 6 21 13 16 13 25 20 39 27 26 12 44 16 74 16 45 0 77-12 113-43 9-7 15-11 21-13 10-3 13-3 24 0a41 41 0 0 1 29 39c0 18-8 29-35 50-52 39-114 57-180 50m15-209a44 44 0 0 1-23-19c-4-7-5-10-5-20 0-11 1-14 5-21 22-37 78-22 78 21a41 41 0 0 1-23 37 49 49 0 0 1-32 2" horiz-adv-x="1000" />

<glyph glyph-name="wifi-high" unicode="&#xe81a;" d="M462 473c-104-9-202-52-274-121-21-20-26-36-17-54 7-16 21-25 38-25 13 0 21 4 39 21a375 375 0 0 0 162 87c32 7 53 10 90 10 62 0 109-11 164-38 35-17 61-35 93-63 15-13 22-17 35-17 17 0 30 9 37 25 9 18 4 34-16 53-65 63-154 105-247 119-26 4-79 6-104 3m10-208a249 249 0 0 1-124-50c-27-21-35-32-35-50 0-18 12-34 29-39 11-3 14-3 24 0 6 2 12 6 21 13 16 13 25 20 39 27 26 12 44 16 74 16 45 0 77-12 113-43 9-7 15-11 21-13 10-3 13-3 24 0a41 41 0 0 1 29 39c0 18-8 29-35 50-52 39-114 57-180 50m15-209a44 44 0 0 1-23-19c-4-7-5-10-5-20 0-11 1-14 5-21 22-37 78-22 78 21a41 41 0 0 1-23 37 49 49 0 0 1-32 2" horiz-adv-x="1000" />

<glyph glyph-name="wifi-low" unicode="&#xe81b;" d="M472 265a249 249 0 0 1-124-50c-27-21-35-32-35-50 0-18 12-34 29-39 11-3 14-3 24 0 6 2 12 6 21 13 16 13 25 20 39 27 26 12 44 16 74 16 45 0 77-12 113-43 9-7 15-11 21-13 10-3 13-3 24 0a41 41 0 0 1 29 39c0 18-8 29-35 50-52 39-114 57-180 50m15-209a44 44 0 0 1-23-19c-4-7-5-10-5-20 0-11 1-14 5-21 22-37 78-22 78 21a41 41 0 0 1-23 37 49 49 0 0 1-32 2" horiz-adv-x="1000" />

<glyph glyph-name="wifi-off" unicode="&#xe81c;" d="M70 806c-10-4-18-10-23-19-4-7-4-10-4-20 0-9 1-14 3-19 1-3 34-36 71-74 38-38 68-69 68-69 0-1-12-8-27-16-39-24-79-53-101-75-9-9-12-13-14-19-7-27 13-54 40-54 13 0 20 3 38 19 36 30 71 54 107 72l20 11 48-48 48-48-8-3c-26-9-66-30-93-48-34-23-71-57-74-69a41 41 0 0 1 2-29c7-16 21-25 38-25 13 0 21 4 37 19a357 357 0 0 0 90 62c21 10 65 26 72 26 2 0 29-26 60-57l58-58-15 1c-37 3-85-7-120-25-34-16-68-43-75-59a42 42 0 0 1 26-56c11-3 14-3 24 0 6 2 12 6 21 13 26 22 50 34 81 41 12 3 52 3 65 0 30-7 54-19 80-41 16-14 26-17 41-14l10 2 114-114c63-63 117-116 120-117 5-3 10-4 19-4 10 0 13 1 20 5 20 12 27 38 16 57-3 4-194 196-426 428-389 389-422 421-429 424a42 42 0 0 1-28 0m383-124c-15-2-20-3-27-6a40 40 0 0 1-10-64c11-13 9-13 73-13 61 0 80-2 123-10a586 586 0 0 0 269-131c16-14 23-17 36-17 27 0 46 26 40 52-3 10-8 17-27 32-103 87-222 138-357 154-27 3-95 5-120 3m248-264a39 39 0 0 1-22-11 36 36 0 0 1-12-25c-2-19 7-32 30-47 19-11 38-25 56-42 17-16 25-20 39-20 17 0 30 9 37 25a38 38 0 0 1 0 33c-6 14-39 43-75 67-29 19-39 23-53 20m-214-362a44 44 0 0 1-23-19c-4-7-5-10-5-20 0-11 1-14 5-21 22-37 78-22 78 21a41 41 0 0 1-23 37 49 49 0 0 1-32 2" horiz-adv-x="1000" />

<glyph glyph-name="wifi-zero" unicode="&#xe81d;" d="M487 56a44 44 0 0 1-23-19c-4-7-5-10-5-20 0-11 1-14 5-21 22-37 78-22 78 21a41 41 0 0 1-23 37 49 49 0 0 1-32 2" horiz-adv-x="1000" />

<glyph glyph-name="wind" unicode="&#xe81e;" d="M437 723c-22-4-52-19-61-31a42 42 0 0 1 12-61c7-4 10-5 21-5 11 0 13 0 22 6 17 10 27 12 42 7 16-6 28-24 27-42-2-17-15-33-30-37-4-1-71-2-198-2-210 0-202 1-214-9-4-2-8-8-11-12-4-7-4-10-4-20 0-11 0-14 4-21 5-9 13-15 23-19 5-1 43-2 203-2 173 0 199 0 210 3 61 12 104 67 100 128a142 142 0 0 1-17 57c-15 27-45 50-76 58-11 3-41 4-53 2m354-125a143 143 0 0 1-85-45c-14-15-18-24-18-36 0-25 21-44 44-41 13 1 20 5 33 18 8 8 14 13 22 17 9 4 12 5 26 5 13 0 16-1 25-5 14-7 24-17 31-31 5-10 5-12 5-26 0-14 0-16-5-26a70 70 0 0 0-32-31l-9-4-378-1c-297-1-378-2-382-3a48 48 0 0 1-21-19c-4-6-4-9-4-20 0-11 0-14 4-20 6-10 16-17 25-20 4-1 134-2 386-1 364 0 380 0 390 3 64 19 107 71 110 136a124 124 0 0 1-7 50 146 146 0 0 1-160 100m-720-375c-10-3-19-10-24-19-4-7-4-10-4-21 0-10 0-13 4-20 5-9 13-16 23-19 5-2 53-2 263-2 288 0 266 1 280-13a41 41 0 0 0-9-65c-7-4-10-5-21-5-12 0-13 1-25 8-11 7-13 7-25 7-10 0-13-1-20-4-20-12-27-38-15-58 9-15 35-29 61-34a124 124 0 0 1 144 86c20 69-18 136-88 157-8 3-29 3-273 4-214 0-266-1-271-2" horiz-adv-x="1000" />

<glyph glyph-name="wind-arrow-down" unicode="&#xe81f;" d="M404 806a43 43 0 0 1-24-19l-4-8-1-122 0-123-51 51c-45 45-52 52-60 54a42 42 0 0 1-50-19c-4-6-5-9-5-20 0-9 1-14 3-18 2-3 43-46 91-94 96-96 96-96 114-96 18 0 18 0 113 96 49 48 89 91 91 94 2 4 3 9 3 18 0 11 0 14-4 20a42 42 0 0 1-51 19c-7-2-14-9-59-54l-52-51 0 123 0 122-5 8a42 42 0 0 1-49 19m387-291a143 143 0 0 1-85-45c-14-15-18-24-18-37 0-24 21-43 44-41 13 1 20 6 33 19 8 8 14 13 22 16 9 5 12 6 26 5 13 0 16 0 25-5 14-6 24-16 31-30 5-10 5-12 5-26 0-14 0-16-5-26a70 70 0 0 0-32-31l-9-5-378-1c-297 0-378-1-382-3a48 48 0 0 1-21-18c-4-7-4-10-4-20 0-11 0-14 4-21 6-9 16-17 25-19 4-1 134-2 386-2 364 1 380 1 390 4 64 18 107 71 110 136a124 124 0 0 1-7 50 146 146 0 0 1-160 100m-720-376c-10-3-19-10-24-19-4-6-4-9-4-20 0-11 0-14 4-20 5-9 13-16 23-19 5-2 53-2 263-3 288 0 266 1 280-12a41 41 0 0 0-9-66c-7-4-10-4-21-4-12 0-13 0-25 7-11 7-13 8-25 8-10 0-13-1-20-5-20-12-27-38-15-58 9-14 35-28 61-34a124 124 0 0 1 144 87c20 69-18 135-88 157-8 3-29 3-273 3-214 0-266 0-271-2" horiz-adv-x="1000" />

<glyph glyph-name="wine" unicode="&#xe820;" d="M361 806a42 42 0 0 1-21-16c-7-12-47-129-62-181-26-89-34-172-23-225 16-74 64-138 130-172 22-11 40-18 69-24l4-1v-212h-64c-71 0-75-1-86-9-4-3-8-8-11-13-4-6-4-9-4-20 0-10 0-13 4-20 5-9 13-16 23-19 9-3 351-3 360 0 10 3 18 10 23 19 4 7 5 10 5 20 0 11-1 14-5 20a50 50 0 0 1-11 13c-11 8-15 9-86 9h-64v212l4 1c56 12 95 33 132 71 55 55 78 125 71 212-7 76-29 158-75 285-13 34-17 41-30 47l-8 5-134 0c-114 0-135 0-141-2m250-124c18-50 32-96 39-125 6-26 13-67 13-76v-6h-326v6c0 9 7 50 13 76 7 29 21 75 39 125l15 43h192l15-43m49-295a168 168 0 0 0-128-117c-83-17-167 34-192 117l-1 5h322l-1-5" horiz-adv-x="1000" />

<glyph glyph-name="wine-off" unicode="&#xe821;" d="M70 806c-10-4-18-10-23-19-4-7-4-10-4-20 0-9 1-14 3-19 1-3 50-53 108-111l105-105-3-19c-7-52-8-99-1-129 16-76 64-138 131-173 24-12 42-18 69-24l3 0v-212h-64c-71 0-75-1-86-9-4-3-8-8-11-13-4-6-4-9-4-20 0-10 0-13 4-20 5-9 13-16 23-19 9-3 351-3 360 0 10 3 18 10 23 19 4 7 5 10 5 20 0 11-1 14-5 20a50 50 0 0 1-11 13c-11 8-15 9-86 9h-64v211l15 4c8 2 19 5 24 7l10 3 151-151c83-83 153-152 156-153 5-3 10-4 19-4 10 0 13 1 20 5 20 12 27 38 16 57-3 4-194 196-426 428-389 389-422 421-429 424a42 42 0 0 1-28 0m290 0c-10-4-20-15-25-27-20-54-21-63-5-81 22-24 58-16 70 17l4 10h192l15-43c18-50 32-96 39-125 6-26 13-67 13-75v-6l-11-1c-13-1-22-5-31-15-15-16-13-42 4-57a39 39 0 0 1 29-11h7l0-7c-3-16 14-38 31-42 17-3 34 3 44 16 12 16 17 66 12 121-7 73-29 152-74 276-13 34-17 41-30 47l-8 5-134 0c-118 0-135 0-142-2m101-476c68-68 65-63 41-63a168 168 0 0 0-160 113l-3 12h60l62-62" horiz-adv-x="1000" />

<glyph glyph-name="workflow" unicode="&#xe822;" d="M188 765a127 127 0 0 1-100-88l-4-13v-211l4-13a129 129 0 0 1 85-85c10-3 16-4 44-5l33 0 0-75c1-72 1-74 5-86a130 130 0 0 1 84-84c12-4 14-4 86-5l75 0 0-33c1-28 2-34 5-44a129 129 0 0 1 85-85l13-4h211l13 4a129 129 0 0 1 85 85l4 13v212l-4 12c-13 41-46 74-86 85-13 4-14 4-118 4s-104 0-117-4c-40-11-73-43-86-84-3-10-4-17-5-45l0-33-69 1-68 0-8 5a50 50 0 0 0-12 10c-9 12-10 14-10 85v66l33 0c28 1 35 2 45 5a129 129 0 0 1 84 85l4 13v211l-4 13a129 129 0 0 1-84 85l-13 4-101 0c-56 0-105 0-109-1m200-84c12-4 23-15 26-26 4-12 4-180 0-192a43 43 0 0 0-19-24l-7-5h-192l-8 5a44 44 0 0 0-19 23c-4 10-3 180 0 193 4 11 15 22 26 26 12 3 181 4 193 0m417-417c11-3 22-14 26-26 3-12 4-180 0-192a43 43 0 0 0-19-24l-8-4h-191l-8 4a44 44 0 0 0-19 23c-4 11-4 181 0 193 3 11 15 23 25 26 12 4 181 4 194 0" horiz-adv-x="1000" />

<glyph glyph-name="worm" unicode="&#xe823;" d="M276 767c-44-5-79-15-117-35-50-26-71-42-88-64-28-36-36-88-22-132 27-84 121-125 200-89 7 3 19 10 27 15 9 5 18 10 22 11 16 5 34-9 34-26 0-4-6-27-14-53-18-57-22-73-25-97-12-81 13-173 64-239a361 361 0 0 1 76-70c95-65 221-73 325-22 15 8 49 29 62 39l10 8 37-18c42-21 48-23 63-18a43 43 0 0 1 28 40 45 45 0 0 1-11 28c-4 4-16 11-41 24l-34 17 1 9c2 15 1 43-2 57a157 157 0 0 1-22 50c-10 14-30 34-44 41a303 303 0 0 0-13 8c-2 1 1 8 19 44 23 47 25 53 20 68a42 42 0 0 1-52 26c-16-5-19-9-50-70-15-31-28-56-29-56-24-6-36-12-66-30-8-5-11-6-18-6-12 0-21 4-27 13-8 12-7 20 9 71 22 70 26 87 28 125 4 57-17 133-48 182-61 96-163 151-276 150-12 0-23 0-26-1m79-87a231 231 0 0 0 114-60 232 232 0 0 0 71-137c3-19 2-54-1-72-3-18-4-21-21-76-16-53-18-61-18-78a115 115 0 0 1 64-102c20-9 34-12 56-11 23 1 37 5 56 17 29 18 34 20 48 20 21 1 36-5 50-18 22-23 22-62 0-86-12-14-58-40-86-49-46-16-101-16-149 0-38 12-77 38-105 69-43 48-67 120-59 185 2 21 5 31 23 88 17 56 17 58 17 77a106 106 0 0 1-32 77c-23 23-48 33-80 33-25 0-41-5-71-24-26-16-40-19-60-13-21 6-32 16-41 35-5 10-5 12-5 26 0 12 1 17 4 24 9 19 15 24 52 45 34 19 63 29 92 33 18 3 63 1 81-3" horiz-adv-x="1000" />

<glyph glyph-name="wrap-text" unicode="&#xe824;" d="M112 639a43 43 0 0 1-23-19c-4-6-5-9-5-20 0-11 1-14 5-20 5-9 13-16 22-19 10-4 769-4 778 0 9 3 17 10 22 19 4 6 5 9 5 20 0 11-1 14-5 20a43 43 0 0 1-24 19c-11 4-764 4-775 0m0-250a43 43 0 0 1-23-19c-4-6-5-9-5-20 0-11 1-14 5-20 5-9 13-16 22-19 5-2 64-2 328-3 359 0 333 1 353-11a84 84 0 0 0 33-109c-7-13-24-31-36-37-16-8-25-9-66-9h-38l8 9c12 13 14 18 15 32 0 11-1 14-5 21a42 42 0 0 1-51 18c-7-2-14-8-55-49-52-52-55-56-55-73 0-17 3-21 54-72 26-25 49-47 52-49 5-2 10-3 19-3 10 0 13 0 20 4a41 41 0 0 1 21 41c-1 11-5 18-15 29l-8 8h40c34 0 43 1 57 4 56 11 101 48 122 101a165 165 0 0 1 0 124 166 166 0 0 1-129 102c-22 4-652 4-663 0m0-250a43 43 0 0 1-23-19c-4-6-5-9-5-20 0-11 1-14 5-20 5-9 13-16 22-19 10-4 310-4 319 0 10 3 18 10 23 19 4 6 5 9 5 20 0 11-1 14-5 20a43 43 0 0 1-24 19c-11 4-306 4-317 0" horiz-adv-x="1000" />

<glyph glyph-name="wrench" unicode="&#xe825;" d="M629 806c-47-7-86-21-124-46a290 290 0 0 1-119-163c-8-31-10-45-10-83 0-36 2-52 11-79l3-11-140-140c-91-91-142-143-146-150a126 126 0 0 1-20-77c0-10 2-22 4-28 11-43 49-80 91-92 6-1 18-3 28-3a126 126 0 0 1 77 20c7 4 59 55 150 146l140 140 11-3c27-9 43-11 79-11 38 0 54 2 84 11 49 14 88 37 125 74 54 54 82 119 85 197a272 272 0 0 1-20 114c-8 21-15 30-26 35-10 5-25 5-35 1-4-2-33-30-87-84l-82-81-33 32-32 33 82 82c78 79 82 83 84 92 4 11 3 16-1 27-6 16-19 25-53 36a290 290 0 0 1-126 11m57-82c2-1-11-15-55-60-55-54-59-59-64-70a83 83 0 0 1 1-73c5-11 9-15 48-54 39-39 44-44 56-49 24-12 49-12 73 0 12 5 17 10 70 63 47 46 59 57 59 55 2-5 0-48-4-63-9-41-26-73-56-103-41-41-91-62-148-62-28 0-49 5-80 17-13 5-17 5-25 5a54 54 0 0 1-16-4c-3-2-74-71-157-153-137-138-151-151-159-154a47 47 0 0 0-57 24c-6 10-6 29-1 40 2 4 51 54 153 156 115 116 150 152 153 158 5 12 4 22-4 44-11 30-14 43-14 75 0 20 1 31 3 42a202 202 0 0 0 54 102c34 36 70 54 119 63 13 2 46 3 51 1" horiz-adv-x="1000" />

<glyph glyph-name="x" unicode="&#xe826;" d="M236 639c-9-3-17-10-22-19-4-6-5-9-5-20 0-9 1-14 3-18 2-3 54-57 116-119l113-113-113-113c-62-62-114-115-116-119-2-4-3-9-3-18 0-11 1-14 5-20 5-10 15-17 25-20 8-2 22-1 30 3 3 1 56 53 118 115l113 113 113-113c62-62 116-114 119-116 4-2 9-3 18-3 11 0 14 1 21 5 9 5 17 15 19 25 3 8 1 22-2 30-2 3-54 56-116 118l-113 113 113 113c62 62 114 116 116 119 2 4 3 9 3 18 0 11-1 14-5 20a42 42 0 0 1-50 19c-8-2-19-13-122-116l-114-114-114 114c-103 103-114 114-122 116a42 42 0 0 1-28 0" horiz-adv-x="1000" />

<glyph glyph-name="youtube" unicode="&#xe827;" d="M434 685c-79-2-163-10-248-23-34-5-43-7-59-15-28-15-52-42-61-71-6-21-17-91-22-142-4-40-4-127 0-168 5-51 16-121 22-142 9-29 33-56 61-70 18-10 25-12 70-18 111-16 189-22 303-22 93 0 148 3 233 13 44 5 110 14 120 17 37 12 69 44 81 80 7 21 18 91 22 142 4 41 4 128 0 168-4 51-15 122-22 142a125 125 0 0 1-60 71c-17 8-25 10-60 15a2105 2105 0 0 1-256 23c-57 2-62 2-124 0m124-83c69-2 130-7 190-15 40-5 78-10 83-12a40 40 0 0 0 20-17c7-12 18-81 22-140 3-31 3-105 0-136-4-59-15-128-22-140a40 40 0 0 0-20-17c-8-3-68-11-118-17-173-18-339-14-516 12-25 4-30 5-38 11-10 7-13 16-19 46a902 902 0 0 0-15 173c0 63 4 114 15 173 6 30 9 39 19 46 8 6 13 7 44 12 86 12 157 18 233 21 60 1 66 1 122 0m-155-88c-11-3-21-14-25-25-3-7-3-21-3-140 0-142 0-138 9-150 10-12 29-19 44-14 3 1 56 32 116 68 77 46 111 67 113 71 12 16 13 36 1 52-3 4-34 23-114 71-60 36-112 67-115 68-8 2-16 2-26-1m97-138c21-12 40-24 41-25 2-1-9-8-40-27l-43-25v50c0 28 1 51 1 51 1 0 19-11 41-24" horiz-adv-x="1000" />

<glyph glyph-name="zap" unicode="&#xe828;" d="M548 807c-15-4-22-10-53-41-103-104-393-405-398-412a106 106 0 0 1-9-17c-4-12-6-34-3-45 8-33 33-59 65-65 6-1 56-2 159-2 123 0 150 0 149-2-1-1-19-59-41-129-40-124-41-127-41-141 0-12 1-15 5-25 17-37 65-48 95-22 15 12 421 431 427 440a106 106 0 0 1 9 17c4 12 6 34 3 46-7 32-34 59-66 64-6 1-59 2-159 2-120 0-148 0-148 2 1 1 19 59 42 129 39 124 40 127 40 141 0 12 0 15-5 25a62 62 0 0 1-53 36 82 82 0 0 1-18-1m-61-228c-30-93-31-101-27-121 6-27 27-51 54-62 10-3 10-3 164-4l155-1-174-179a32187 32187 0 0 0-173-178c-1 0 12 39 27 87 23 72 28 89 28 99 3 37-19 70-55 84l-10 4-154 0-154 1 173 179a32187 32187 0 0 0 174 178c0 0-13-39-28-87" horiz-adv-x="1000" />

<glyph glyph-name="zap-off" unicode="&#xe829;" d="M70 806c-10-4-18-10-23-19-4-7-4-10-4-20 0-9 1-14 3-19 1-3 51-54 110-113l107-107-80-83c-44-45-83-86-86-91a76 76 0 0 1-13-40c-3-40 23-76 63-87 7-1 34-2 160-2 125 0 152 0 151-2-1-1-19-59-41-129-40-124-41-127-41-141 0-12 1-15 5-25 17-37 66-48 95-22 5 3 47 47 95 96l97 100 10 11 107-107c59-59 110-109 113-110 5-3 10-4 19-4 10 0 13 1 20 5 20 12 27 38 16 57-3 4-194 196-426 428-389 389-422 421-429 424a42 42 0 0 1-28 0m478 1c-15-4-22-10-56-45-71-72-88-90-91-95-4-8-5-22-3-31 3-9 14-22 23-26 8-4 21-4 31-1 6 1 12 7 35 30 16 16 28 27 27 25l-16-51c-13-41-15-48-14-56 2-24 26-42 49-37 10 2 22 10 27 17 2 3 17 48 34 101 29 92 30 95 30 109 0 12 0 15-5 25a62 62 0 0 1-53 36 82 82 0 0 1-18-1m94-333c-13-4-25-15-29-27-3-9-2-20 1-29 3-8 14-20 22-23 4-2 30-3 101-3l96-1-37-38c-40-40-43-45-43-61 0-13 4-22 14-31a41 41 0 0 1 45-7c7 4 83 81 91 93 12 16 17 43 12 62-7 32-34 59-66 64-11 2-201 3-207 1m-156-170c0 0-3 0-5 1-4 2-39 3-159 3l-154 1 77 80 77 80 82-83c46-45 82-82 82-82m132-133c0-1-132-138-132-137-1 0 12 39 27 87 30 96 32 102 26 123l-2 10 41-41c22-22 40-41 40-42" horiz-adv-x="1000" />

<glyph glyph-name="zoom-in" unicode="&#xe82a;" d="M431 766c-55-6-94-17-137-38a370 370 0 0 1-171-170 371 371 0 0 1 0-332 353 353 0 0 1 70-98 374 374 0 0 1 430-73 403 403 0 0 1 62 38l7 6 80-80c43-43 81-80 85-82 18-9 43-1 54 17 4 7 5 10 5 21 0 9-1 14-3 18-2 3-39 42-82 85l-79 80 5 7c13 17 27 41 38 63a373 373 0 0 1 0 328 375 375 0 0 1-282 207c-17 2-69 4-82 3m73-87c125-19 225-120 243-246 3-20 3-63 0-82-18-128-117-227-246-248-17-3-68-3-85 0-130 21-228 120-246 248-5 32-2 79 5 110a293 293 0 0 0 214 214c12 3 30 6 50 7 12 2 50 0 65-3m-58-123a43 43 0 0 1-24-19l-4-8-1-48 0-48h-44c-48 0-54-1-65-9-4-2-8-8-11-12-4-7-4-10-4-20 0-11 0-14 4-21 3-4 7-9 11-12 10-8 14-9 63-9l46 0 0-48 1-48 5-8a42 42 0 0 1 71 0l5 8 1 48 0 48 46 0c48 0 52 1 63 9 3 3 8 8 11 12 4 7 4 10 4 21 0 10 0 13-4 20a50 50 0 0 1-11 12c-11 8-17 9-65 9h-44l0 48-1 48-4 8a42 42 0 0 1-49 19" horiz-adv-x="1000" />

<glyph glyph-name="zoom-out" unicode="&#xe82b;" d="M431 766c-55-6-94-17-137-38a370 370 0 0 1-171-170 371 371 0 0 1 0-332 353 353 0 0 1 70-98 374 374 0 0 1 430-73 403 403 0 0 1 62 38l7 6 80-80c43-43 81-80 85-82 18-9 43-1 54 17 4 7 5 10 5 21 0 9-1 14-3 18-2 3-39 42-82 85l-79 80 5 7c13 17 27 41 38 63a373 373 0 0 1 0 328 375 375 0 0 1-282 207c-17 2-69 4-82 3m73-87c125-19 225-120 243-246 3-20 3-63 0-82-18-128-117-227-246-248-17-3-68-3-85 0-130 21-228 120-246 248-5 32-2 79 5 110a293 293 0 0 0 214 214c12 3 30 6 50 7 12 2 50 0 65-3m-183-248a43 43 0 0 1-24-19c-4-7-4-10-4-20 0-11 0-14 4-21 5-9 13-15 23-19 9-3 268-3 277 0 9 4 17 10 23 19 4 7 4 10 4 21 0 10 0 13-4 20a43 43 0 0 1-25 19c-10 3-264 3-274 0" horiz-adv-x="1000" />

<glyph glyph-name="separator-vertical" unicode="&#xe82c;" d="M487 764a43 43 0 0 1-23-19l-5-7v-776l5-8a42 42 0 0 1 72 0l5 8v776l-5 7a42 42 0 0 1-49 19m-169-208c-6-3-20-16-95-91-49-49-90-91-93-95-3-6-4-9-4-20s1-14 4-20c6-9 177-180 185-184 4-2 10-3 18-3 11 0 14 0 21 4 9 6 17 16 20 25a50 50 0 0 1-3 30c-2 3-35 38-74 77l-71 71 71 71c39 39 72 74 74 77 2 5 3 10 3 19 0 10 0 13-4 20a42 42 0 0 1-52 19m335 0c-9-4-18-10-23-19-3-7-4-10-4-20 0-9 1-14 3-19 2-3 35-38 74-77l71-71-71-71c-39-39-72-74-74-77-9-19-2-44 17-55 7-4 10-4 21-4 10 0 13 0 20 4 9 6 180 177 184 185 2 4 3 9 3 18 0 11 0 14-4 20-3 4-44 46-93 95-79 79-89 88-96 91a42 42 0 0 1-28 0" horiz-adv-x="1000" />

<glyph glyph-name="server" unicode="&#xe82d;" d="M146 807c-47-8-85-42-100-89l-3-12v-212l3-12a129 129 0 0 1 86-86l12-3h712l12 3a129 129 0 0 1 86 86l4 12v212l-4 12a129 129 0 0 1-85 85l-13 5-351 0c-193 0-355-1-359-1m700-84c12-4 23-15 27-27 3-12 3-180 0-191a43 43 0 0 0-19-25l-8-4h-692l-7 4a44 44 0 0 0-20 24c-3 10-3 180 1 192 3 12 14 23 25 26 7 2 57 3 346 3 299 0 340 0 347-2m-609-84a44 44 0 0 1-23-19c-4-6-5-9-5-20 0-11 1-14 5-20 22-37 78-22 78 20a41 41 0 0 1-23 37 49 49 0 0 1-32 2m-91-332c-47-8-85-42-100-89l-3-12v-212l3-12a129 129 0 0 1 86-86l12-4h712l12 4a129 129 0 0 1 86 86l4 12v212l-4 12a129 129 0 0 1-85 85l-13 5-351 0c-193 0-355-1-359-1m700-84c12-4 23-15 27-27 3-12 3-180 0-191a43 43 0 0 0-19-25l-8-4h-692l-7 4a50 50 0 0 0-13 11c-9 12-9 12-9 108 0 102 0 101 13 113 13 14-19 13 361 13 299 0 340 0 347-2m-609-84a44 44 0 0 1-23-19c-4-6-5-9-5-20 0-11 1-14 5-20 22-37 78-22 78 20a41 41 0 0 1-23 37 49 49 0 0 1-32 2" horiz-adv-x="1000" />

<glyph glyph-name="server-cog" unicode="&#xe82e;" d="M146 807c-47-8-85-42-100-89l-3-12v-212l3-12a129 129 0 0 1 85-85c9-3 17-4 37-5 29-1 36 1 48 11a41 41 0 0 1 2 58c-10 11-16 13-41 14-21 1-24 1-31 5a50 50 0 0 0-12 11c-9 12-9 12-9 108 0 102 0 101 13 113 13 14-17 13 362 13 380 0 349 1 362-13 13-12 13-11 13-112 0-95 0-97-9-109-3-3-8-8-12-11-7-4-10-4-30-5-19-1-24-2-30-4a41 41 0 0 1-23-38c0-17 11-32 28-39 11-4 53-3 70 3a129 129 0 0 1 85 85l4 12v212l-4 12a129 129 0 0 1-85 85l-13 5-351 0c-193 0-355-1-359-1m91-168a44 44 0 0 1-23-19c-4-6-5-9-5-20 0-11 1-14 5-20 22-37 78-22 78 20a41 41 0 0 1-23 37 49 49 0 0 1-32 2m180-97c-14-5-25-23-25-37 0-4 1-11 2-16l3-7-12-12a238 238 0 0 1-16-17l-5-6-8 2a43 43 0 0 1-49-25c-3-8-3-23 0-31 4-8 12-18 20-21l6-4v-16c0-9 1-19 1-22 1-6 1-6-5-9a41 41 0 0 1-14-65 42 42 0 0 1 46-12l7 3 12-12c6-6 14-13 17-16 7-5 7-5 5-12a43 43 0 0 1 24-50c8-3 23-3 31 0 9 4 18 12 22 20l3 6h16a209 209 0 0 1 22 1c6 1 6 1 9-5 2-4 6-10 10-14 21-19 53-12 65 14 5 10 5 19 2 31l-3 9 12 11c6 6 13 14 16 17 5 7 5 7 12 5a43 43 0 0 1 50 24c3 8 3 23 0 31a49 49 0 0 1-20 22l-6 3v16a209 209 0 0 1-1 22c-1 6-1 6 5 9a41 41 0 0 1 24 38c0 28-26 47-54 39l-10-3-11 12a214 214 0 0 1-17 16c-7 5-7 5-5 12a41 41 0 0 1-12 42 38 38 0 0 1-28 10c-16 0-28-8-37-22l-3-6-22-1-22-1-3 7a50 50 0 0 1-22 21c-7 3-25 3-32-1m100-110c14-3 29-11 39-21 10-9 11-11 21-31 12-28 6-62-16-86a68 68 0 0 0-15-13c-30-15-27-13-47-13-17 0-19 0-31 5a80 80 0 0 0-23 15c-11 10-12 12-22 33-9 20-8 43 2 65 6 12 20 29 29 33 15 7 25 12 30 13 8 2 23 2 33 0m-371-125a127 127 0 0 1-100-89l-3-12v-212l3-12a129 129 0 0 1 86-86l12-4h712l12 4a129 129 0 0 1 86 86l4 12v212l-4 12c-13 42-46 74-86 86-12 3-18 3-40 4-25 0-28-1-34-4-14-8-23-21-23-37 0-17 9-30 25-38 7-3 11-4 26-4 22 0 31-3 41-13 12-12 12-12 12-112 0-95 0-97-9-109-3-3-8-8-12-11l-8-4h-692l-7 4a50 50 0 0 0-13 11c-9 12-9 12-9 108 0 102 0 101 13 113 9 10 19 13 41 13 14 0 18 1 25 4 16 8 25 21 25 38a41 41 0 0 1-23 37c-6 3-10 4-29 4a240 240 0 0 1-31-1m91-168a44 44 0 0 1-23-19c-4-6-5-9-5-20 0-11 1-14 5-20 22-37 78-22 78 20a41 41 0 0 1-23 37 49 49 0 0 1-32 2" horiz-adv-x="1000" />

<glyph glyph-name="server-crash" unicode="&#xe82f;" d="M146 807c-47-8-85-42-100-89l-3-12v-212l3-12a129 129 0 0 1 85-85c11-4 15-4 68-5 36 0 58 0 62 1 10 3 20 11 25 20 4 7 5 10 5 20 0 11-1 14-5 21a47 47 0 0 1-20 18c-4 1-22 2-58 3l-54 1-7 4a50 50 0 0 0-13 11c-9 12-9 12-9 108 0 102 0 101 13 113 13 14-17 13 362 13 380 0 349 1 362-13 13-12 13-11 13-112 0-95 0-97-9-109-3-3-8-8-12-11l-8-4-53-1c-37-1-55-2-58-3a47 47 0 0 1-21-18c-4-7-5-10-5-21 0-10 1-13 5-20 5-9 15-17 25-20 4-1 26-1 63-1 52 1 56 1 67 5a129 129 0 0 1 85 85l4 12v212l-4 12a129 129 0 0 1-85 85l-13 5-351 0c-193 0-355-1-359-1m91-168a44 44 0 0 1-23-19c-4-6-5-9-5-20 0-11 1-14 5-20 22-37 78-22 78 20a41 41 0 0 1-23 37 49 49 0 0 1-32 2m291 0a59 59 0 0 1-11-6c-6-4-178-260-181-270-7-18 2-41 20-50l8-4 91-1 92 0-64-95c-34-53-64-98-65-101-5-19 3-38 20-48 8-5 22-7 31-4 16 5 15 3 106 140 48 72 88 134 90 138 6 19-4 42-24 51-4 1-28 2-96 3l-92 1 63 94c35 51 64 96 65 100 11 32-21 64-53 52m-382-332c-47-8-85-42-100-89l-3-12v-212l3-12a129 129 0 0 1 86-86l12-4h712l12 4a129 129 0 0 1 86 86l4 12v212l-4 12a128 128 0 0 1-85 85c-13 4-16 4-66 5-37 0-57 0-62-1a43 43 0 0 1-27-20c-4-7-5-10-5-20 0-11 1-14 5-21 2-4 7-9 10-12 11-8 15-9 67-9 56 0 59-1 72-13 12-12 12-12 12-112 0-95 0-97-9-109-3-3-8-8-12-11l-8-4h-692l-7 4a50 50 0 0 0-13 11c-9 12-9 12-9 108 0 102 0 101 13 113 12 12 16 13 72 13 51 0 55 1 66 9 3 3 8 8 10 12 4 7 5 10 5 21 0 10-1 13-5 20a50 50 0 0 1-10 12c-11 9-17 9-72 9-27 0-54-1-58-1m91-168a44 44 0 0 1-23-19c-4-6-5-9-5-20 0-11 1-14 5-20 22-37 78-22 78 20a41 41 0 0 1-23 37 49 49 0 0 1-32 2" horiz-adv-x="1000" />

<glyph glyph-name="server-off" unicode="&#xe830;" d="M70 806c-10-4-18-10-23-19-4-6-4-9-4-19 0-6 0-19 0-30a18848 18848 0 0 1 0-131v-113l3-12c13-41 44-72 85-86l12-3 128-1 128 0 41-42 42-41-169-1-169 0-13-5a129 129 0 0 1-85-85l-3-12v-212l3-12c13-41 44-72 85-86l12-4 359 0 360 0 13 5c8 4 14 5 14 4 3-4 19-9 28-9a42 42 0 0 1 37 59c-3 7-81 86-426 430-390 390-423 422-430 425a42 42 0 0 1-28 0m209 0c-10-3-18-10-24-19-3-7-4-10-4-20 0-11 1-14 5-21 5-9 13-15 22-19 5-1 56-2 283-2 311 0 288 1 301-13 13-12 13-11 13-112 0-95 0-97-9-109-3-3-8-8-12-11l-8-4-116-1c-88-1-117-1-120-3a48 48 0 0 1-21-18c-4-7-5-10-5-21 0-10 1-13 5-20 5-9 15-17 25-20 4-1 46-1 125-1l119 1 11 4c41 13 72 44 85 85l4 12v212l-4 12a129 129 0 0 1-85 85l-13 5-285 0c-230 0-286 0-292-2m18-331c-10 0-46 0-80 0l-63 1-7 4a50 50 0 0 0-13 11c-9 12-9 13-9 97v78l95-95 95-95-18-1m482-169a44 44 0 0 1-24-19c-3-7-4-10-4-20 0-11 1-14 5-21 2-4 7-9 10-12 10-8 16-9 46-9 32 0 39-2 50-12 11-11 12-15 13-51l1-33 5-8a42 42 0 0 1 72 0l5 8v38c0 36-1 40-4 51a128 128 0 0 1-85 85c-12 4-17 4-48 5-26 0-37 0-42-2m-88-206l125-125-331 0-331 1-7 4a50 50 0 0 0-13 11c-9 12-9 12-9 108 0 102 0 101 13 113 13 14-2 13 225 13l203 0 125-125m-454 39a44 44 0 0 1-23-19c-4-6-5-9-5-20 0-11 1-14 5-20 22-37 78-22 78 20a41 41 0 0 1-23 37 49 49 0 0 1-32 2" horiz-adv-x="1000" />

<glyph glyph-name="settings" unicode="&#xe831;" d="M474 807c-2 0-7-1-12-2-27-5-58-27-75-52-13-19-19-39-21-69-2-28-7-36-30-50-15-8-27-11-36-10-3 1-14 5-24 10-23 12-36 15-57 15a127 127 0 0 1-59-13c-14-7-18-10-31-23-32-33-51-80-46-117 6-41 25-72 57-92 27-17 32-25 32-53 0-10-1-21-2-24-2-9-12-19-28-29-7-6-18-13-22-17-26-25-42-68-37-104 3-19 8-34 21-56 14-25 34-45 54-56 19-10 37-14 60-14 22 0 33 3 57 14 20 10 28 12 39 10 10-2 31-13 39-21 9-9 12-17 13-38 0-10 2-23 3-29 9-37 39-72 74-86 31-13 83-13 114 0 35 14 65 49 74 86 1 6 3 19 3 29 2 21 4 29 13 38 8 8 30 19 39 21 11 2 19 0 39-10 24-11 35-14 58-14 43 0 81 21 104 55 26 40 35 70 29 103-6 38-25 67-55 87a2660 2660 0 0 1-15 10 50 50 0 0 0-11 11c-6 8-6 9-6 29-1 11 0 23 1 27 2 9 13 20 26 29 36 21 57 54 62 98 1 12-2 34-7 49a228 228 0 0 1-15 30 137 137 0 0 1-25 34c-13 13-17 16-31 23a127 127 0 0 1-59 13c-21 0-33-3-57-15-10-5-21-9-24-10-9-1-21 2-35 10-24 14-29 22-31 50-1 22-4 36-11 50a131 131 0 0 1-82 71c-8 2-59 4-67 2m54-86c3-2 8-6 11-9 9-10 10-13 12-38 2-27 7-44 17-61 13-22 25-33 54-50 45-28 84-30 132-7 17 8 21 10 29 10 19-1 32-11 44-34 8-15 9-28 3-40-5-10-7-12-25-25-22-14-36-30-47-51-10-22-13-35-13-66s3-44 13-66c11-21 25-37 47-51 23-16 28-23 28-41 0-8-1-12-7-25-9-18-18-27-32-31-12-4-19-2-40 8-22 11-37 15-60 15-22 0-38-4-57-14-32-16-51-31-65-53-14-20-19-38-21-67-1-21-3-27-11-36-9-11-19-14-40-14-21 0-30 3-40 14-8 9-9 14-11 35-2 29-7 48-20 68-15 22-33 37-65 53a116 116 0 0 1-58 14c-23 0-38-4-61-16-15-7-19-8-27-9-19 0-30 8-43 30-9 16-11 29-6 42 4 11 8 15 26 27 26 17 43 38 53 65 6 16 7 26 7 53 0 29-3 43-12 63-11 23-25 38-52 56-14 9-18 14-22 24-5 13-3 26 6 42 9 15 15 22 25 26 14 6 23 5 46-6 48-23 87-21 133 7 28 17 40 28 53 51 9 15 15 33 17 57 2 26 3 31 11 39 11 12 18 15 43 15 14-1 19-2 25-4m-55-207c-47-7-92-38-116-79a166 166 0 0 1 81-239 166 166 0 0 1 216 92 165 165 0 0 1 0 124 166 166 0 0 1-129 102 155 155 0 0 1-52 0m49-84a84 84 0 0 0 60-67c4-27-4-52-23-71-17-17-36-25-59-25-21 0-40 7-56 22-55 52-19 144 56 144 6 0 16-1 22-3" horiz-adv-x="1000" />

<glyph glyph-name="settings-2" unicode="&#xe832;" d="M265 723c-47-8-92-39-116-79a166 166 0 0 1 81-240 165 165 0 0 1 124 0 164 164 0 0 1 92 94c3 7 6 14 6 16 1 3 12 3 195 3 158 0 195 0 200 2 9 3 17 10 23 19 4 7 4 10 4 20 0 11 0 14-4 21a50 50 0 0 1-11 12c-12 9-5 9-213 9-182 0-193 0-194 3a539 539 0 0 1-6 16c-20 55-71 95-129 104a155 155 0 0 1-52 0m49-84a84 84 0 0 0 60-68c4-27-4-51-24-71-17-17-35-25-58-25-22 0-40 7-56 22-56 52-20 145 56 145 6 0 15-2 22-3m368-333c-63-10-115-57-134-120-1-2-11-3-173-3-186 0-180 1-192-9-4-2-8-8-11-12-4-7-4-10-4-20 0-11 0-14 4-21 5-9 13-15 23-19 5-1 39-2 179-2 163 0 173 0 174-3 15-51 50-90 98-110a166 166 0 0 1 217 93 165 165 0 0 1 0 124 166 166 0 0 1-129 102 155 155 0 0 1-52 0m48-84a84 84 0 0 0 60-67c5-28-4-52-23-72-17-17-36-25-59-25-21 0-40 8-56 23-55 51-19 144 56 144 6 0 16-1 22-3" horiz-adv-x="1000" />

<glyph glyph-name="shapes" unicode="&#xe833;" d="M485 780c-11-2-25-10-34-19-6-6-32-46-88-135-44-70-81-130-83-133-19-40 5-90 49-100 4-1 67-1 171-1 178 0 171-1 189 8 11 6 23 19 29 31 10 19 10 41 2 60-6 14-162 262-169 269a71 71 0 0 1-66 20m82-199a8892 8892 0 0 0 65-105c0-1-60-1-133-1h-132l56 89c74 117 77 123 78 122 0 0 30-47 66-105m-422-276c-28-7-52-31-59-59-2-8-3-28-3-125 0-125 0-125 10-143 5-11 24-30 35-35 19-10 18-10 143-10 125 0 124 0 143 10 11 5 29 24 35 35 9 18 9 18 9 142 0 123 0 126-9 143-5 11-20 27-32 34-19 11-18 11-146 11-103 0-116 0-126-3m559 2c-61-8-118-50-145-107a188 188 0 0 1 11-178c25-41 65-70 115-83 14-4 19-5 44-5s30 1 45 5c82 22 138 90 142 173 6 116-95 209-212 195m-329-186v-104h-208v208h208v-104m376 102a104 104 0 0 0 71-55c15-31 15-63 0-94a105 105 0 0 0-59-52c-11-4-14-4-34-4-19 0-23 0-34 4a105 105 0 0 0-58 52c-39 79 29 166 114 149" horiz-adv-x="1000" />

<glyph glyph-name="share" unicode="&#xe834;" d="M483 804c-7-3-27-22-97-92-48-48-89-90-90-93-10-19-2-44 17-55 7-4 10-5 20-5 9 0 15 1 19 3 3 2 28 26 56 54l50 50 1-227 0-227 5-8c3-4 9-10 13-13 20-14 46-8 59 13l5 8 0 227 1 227 50-50c28-28 53-52 56-54 5-2 10-3 19-3 10 0 13 1 20 5 9 5 17 15 20 25a50 50 0 0 1-3 30c-1 3-42 45-90 93-70 70-90 89-96 92a40 40 0 0 1-35 0m-329-415a43 43 0 0 1-24-19l-4-7v-369l4-12a129 129 0 0 1 85-86l13-4h545l12 4a129 129 0 0 1 85 86l4 12v369l-4 7a42 42 0 0 1-73 0l-4-7-1-179c-1-137-2-179-3-183a48 48 0 0 0-19-21l-7-4h-525l-8 4a48 48 0 0 0-19 21c-1 4-2 46-3 183l0 179-5 7a42 42 0 0 1-49 19" horiz-adv-x="1000" />

<glyph glyph-name="share-2" unicode="&#xe835;" d="M723 806c-47-7-92-38-116-79-21-35-28-78-21-116 3-15 3-15 0-17-10-6-216-126-217-126 0 0-7 5-14 11a167 167 0 0 1-80 35 142 142 0 0 1-50 0c-93-14-157-104-138-196a166 166 0 0 1 101-122 165 165 0 0 1 124 0c18 7 29 13 44 26 7 5 13 10 13 10 1 0 206-119 217-126 3-2 3-2 0-17-13-66 19-138 79-174a170 170 0 0 1 117-20c67 14 118 64 131 132a164 164 0 0 1-9 93 166 166 0 0 1-129 103 142 142 0 0 1-50 0 167 167 0 0 1-80-35 174 174 0 0 0-14-11c-1 0-208 120-217 126-3 2-3 2 0 16a164 164 0 0 1 0 62l-3 14 19 12c69 40 200 116 201 116 1 0 6-4 13-9 15-13 27-20 44-27a166 166 0 0 1 216 93 165 165 0 0 1 0 124 166 166 0 0 1-129 102 155 155 0 0 1-52 0m49-84a84 84 0 0 0 60-67c4-28-4-52-23-72-17-17-36-25-59-25a83 83 0 0 0-72 42c-37 63 22 141 94 122m-500-292c49-13 76-70 53-117-7-13-24-31-36-37a82 82 0 0 0-95 13c-55 52-19 144 56 144 6 0 16-1 22-3m500-291a84 84 0 0 0 60-68c4-27-4-51-23-71-17-17-36-25-59-25-21 0-40 7-56 22-29 27-36 70-16 103a83 83 0 0 0 94 39" horiz-adv-x="1000" />

<glyph glyph-name="sheet" unicode="&#xe836;" d="M188 765c-47-8-85-42-100-88l-4-13v-628l4-13a129 129 0 0 1 85-85l13-4h628l13 4a129 129 0 0 1 85 85l4 13v628l-4 13a129 129 0 0 1-84 85l-14 4-309 0c-170 0-313 0-317-1m617-84a37 37 0 0 0 16-10c12-13 12-15 12-90v-64h-666v64c0 75 0 77 12 90a39 39 0 0 0 16 10c12 3 597 4 610 0m-472-331v-83h-166v166h166v-83m250 0v-83h-166v166h166v-83m250 0v-83h-166v166h166v-83m-500-250v-83l-68 0-69 1-8 4a50 50 0 0 0-12 10c-9 12-9 15-9 86v65h166v-83m250 0v-83h-166v166h166v-83m250 19c0-71 0-75-9-86-2-4-8-8-12-11l-8-4-69-1-68 0v166h166v-64" horiz-adv-x="1000" />

<glyph glyph-name="shell" unicode="&#xe837;" d="M225 767c-20-4-48-19-62-35-9-10-26-32-38-52-79-125-104-282-66-413 23-78 59-140 118-199 40-40 76-66 124-89 156-75 336-57 476 47 25 19 70 64 88 89a461 461 0 0 1 86 195c16 90 6 171-31 246-55 112-158 188-283 207-27 4-81 4-107 0a413 413 0 0 1-71-17c-21-8-59-26-76-37l-14-9c-1-1-5 3-9 10a126 126 0 0 1-77 57c-16 4-41 4-58 0m47-84c15-8 25-26 22-43-1-9-4-14-15-29-68-93-89-223-52-322 38-99 124-169 231-186 17-3 67-3 85 0 128 21 225 118 246 246 3 21 3 66-1 83-15 71-64 129-132 155-43 17-102 17-146 0a212 212 0 0 1-113-103 189 189 0 0 1-21-91c0-20 0-26 4-36a129 129 0 0 1 85-86c18-5 52-5 70 0a128 128 0 0 1 85 86c3 9 4 16 4 30 0 16 0 18-4 25a42 42 0 0 1-61 13c-10-7-15-17-17-32a108 108 0 0 0-4-17 45 45 0 0 0-18-21c-6-3-9-4-20-4s-14 1-20 4c-16 10-22 23-21 45a125 125 0 0 0 89 112c11 3 16 4 35 4 19 0 25-1 36-4a126 126 0 0 0 89-110c1-15-2-44-6-62a211 211 0 0 0-110-135c-31-15-56-21-92-21-28 0-43 3-67 11a212 212 0 0 0-128 124c-18 48-17 113 5 172a292 292 0 0 0 233 189c31 5 78 2 110-5 115-28 202-124 219-242 3-22 3-71-1-95-12-82-49-155-108-213a353 353 0 0 0-97-69 372 372 0 0 0-333 1c-39 19-67 39-97 69a365 365 0 0 0-73 102 368 368 0 0 0-34 110c-4 24-4 83 0 111 9 71 33 136 72 194 24 37 32 44 52 44 8 0 13-1 19-4" horiz-adv-x="1000" />

<glyph glyph-name="shield" unicode="&#xe838;" d="M484 807c-18-3-33-12-58-33-45-37-120-75-173-86a349 349 0 0 0-39-5c-27-1-36-4-50-13-19-12-33-32-37-53-2-5-2-62-1-180 0-186 0-180 9-223 27-121 114-219 255-284 29-13 57-25 82-33 15-5 19-6 31-5a100 100 0 0 1 28 5c62 22 132 56 177 89 46 33 85 74 112 116a383 383 0 0 1 45 112c9 43 9 37 10 222 0 187 0 184-9 202-9 17-30 36-48 41-5 2-19 4-32 4-40 3-75 13-118 33a461 461 0 0 0-98 61c-19 16-24 19-34 24a92 92 0 0 1-52 6m28-90c76-65 180-111 263-116l17-1-1-164c0-178 0-174-10-213-17-67-59-125-124-171-36-26-86-51-142-72l-14-5-20 7c-78 29-137 64-180 105-56 54-85 114-91 192-1 13-2 83-2 171v150l18 1c81 5 187 52 262 116 5 5 11 8 12 8 2 0 7-3 12-8" horiz-adv-x="1000" />

<glyph glyph-name="shield-alert" unicode="&#xe839;" d="M484 807c-18-3-33-12-58-33-45-37-120-75-173-86a349 349 0 0 0-39-5c-27-1-36-4-50-13-19-12-33-32-37-53-2-5-2-62-1-180 0-186 0-180 9-223 27-121 114-219 255-284 29-13 57-25 82-33 15-5 19-6 31-5a100 100 0 0 1 28 5c62 22 132 56 177 89 46 33 85 74 112 116a383 383 0 0 1 45 112c9 43 9 37 10 222 0 187 0 184-9 202-9 17-30 36-48 41-5 2-19 4-32 4-40 3-75 13-118 33a461 461 0 0 0-98 61c-19 16-24 19-34 24a92 92 0 0 1-52 6m28-90c76-65 180-111 263-116l17-1-1-164c0-178 0-174-10-213-17-67-59-125-124-171-36-26-86-51-142-72l-14-5-20 7c-78 29-137 64-180 105-56 54-85 114-91 192-1 13-2 83-2 171v150l18 1c81 5 187 52 262 116 5 5 11 8 12 8 2 0 7-3 12-8m-25-161a43 43 0 0 1-23-19l-5-8v-192l5-8c3-4 9-10 13-13 20-14 46-8 59 13l5 8v192l-5 8a42 42 0 0 1-49 19m0-333a44 44 0 0 1-23-19c-4-7-5-10-5-21 0-10 1-13 5-20 22-37 78-22 78 20a41 41 0 0 1-23 37 49 49 0 0 1-32 3" horiz-adv-x="1000" />

<glyph glyph-name="shield-ban" unicode="&#xe83a;" d="M484 807c-18-3-33-12-58-33-45-37-120-75-173-86a340 340 0 0 0-39-5c-22-1-27-2-45-9-11-4-16-6-22-13-6-6-18-31-20-44-2-5-2-62-1-180 0-186 0-180 9-223 27-121 114-219 255-284 29-13 57-25 82-33 15-5 19-6 31-5a100 100 0 0 1 28 5c62 22 132 56 177 89 46 33 85 74 112 116a383 383 0 0 1 45 112c9 43 9 37 10 222 0 187 0 184-9 202-9 17-30 36-48 41-5 2-19 4-32 4-40 3-75 13-118 33a461 461 0 0 0-98 61c-19 16-24 19-34 24a92 92 0 0 1-52 6m28-90c76-65 180-111 263-116l17-1-1-164c0-178 0-174-10-213-5-19-14-44-16-43-3 0-493 426-492 427 1 0 8 2 16 5 64 16 144 58 199 105 5 5 11 8 12 8 2 0 7-3 12-8m-35-400c132-114 241-209 241-210 1-2-26-28-40-39-41-34-96-63-163-88l-14-5-20 7c-78 29-137 64-180 105-56 54-85 114-91 192-1 12-2 75-2 146v125l15-12c8-7 123-106 254-221" horiz-adv-x="1000" />

<glyph glyph-name="shield-check" unicode="&#xe83b;" d="M484 807c-18-3-33-12-58-33-45-37-120-75-173-86a349 349 0 0 0-39-5c-27-1-36-4-50-13-19-12-33-32-37-53-2-5-2-62-1-180 0-186 0-180 9-223 27-121 114-219 255-284 29-13 57-25 82-33 15-5 19-6 31-5a100 100 0 0 1 28 5c62 22 132 56 177 89 46 33 85 74 112 116a383 383 0 0 1 45 112c9 43 9 37 10 222 0 187 0 184-9 202-9 17-30 36-48 41-5 2-19 4-32 4-40 3-75 13-118 33a461 461 0 0 0-98 61c-19 16-24 19-34 24a92 92 0 0 1-52 6m28-90c76-65 180-111 263-116l17-1-1-164c0-178 0-174-10-213-17-67-59-125-124-171-36-26-86-51-142-72l-14-5-20 7c-78 29-137 64-180 105-56 54-85 114-91 192-1 13-2 83-2 171v150l18 1c81 5 187 52 262 116 5 5 11 8 12 8 2 0 7-3 12-8m98-245c-6-2-18-13-79-74l-73-72-30 30c-28 28-31 31-40 33-11 3-15 3-25 0a43 43 0 0 1-24-19c-4-6-5-9-5-20 0-9 1-14 3-18 5-8 92-96 101-102 7-3 10-4 20-4 9 0 15 1 19 3 8 4 179 175 184 184 4 7 5 10 5 20s-1 14-5 21a42 42 0 0 1-51 18" horiz-adv-x="1000" />

<glyph glyph-name="shield-ellipsis" unicode="&#xe83c;" d="M484 807c-18-3-33-12-58-33-45-37-120-75-173-86a349 349 0 0 0-39-5c-27-1-36-4-50-13-19-12-33-32-37-53-2-5-2-62-1-180 0-186 0-180 9-223 27-121 114-219 255-284 29-13 57-25 82-33 15-5 19-6 31-5a100 100 0 0 1 28 5c62 22 132 56 177 89 46 33 85 74 112 116a383 383 0 0 1 45 112c9 43 9 37 10 222 0 187 0 184-9 202-9 17-30 36-48 41-5 2-19 4-32 4-40 3-75 13-118 33a461 461 0 0 0-98 61c-19 16-24 19-34 24a92 92 0 0 1-52 6m28-90c76-65 180-111 263-116l17-1-1-164c0-178 0-174-10-213-17-67-59-125-124-171-36-26-86-51-142-72l-14-5-20 7c-78 29-137 64-180 105-56 54-85 114-91 192-1 13-2 83-2 171v150l18 1c81 5 187 52 262 116 5 5 11 8 12 8 2 0 7-3 12-8m-191-328a44 44 0 0 1-24-19c-4-6-4-9-4-20 0-11 0-14 4-20 22-37 78-22 78 20a41 41 0 0 1-22 37 49 49 0 0 1-32 2m166 0a44 44 0 0 1-23-19c-4-6-5-9-5-20 0-11 1-14 5-20 22-37 78-22 78 20a41 41 0 0 1-23 37 49 49 0 0 1-32 2m167 0a44 44 0 0 1-24-19c-3-6-4-9-4-20 0-11 1-14 5-20 21-37 77-22 77 20a41 41 0 0 1-22 37 49 49 0 0 1-32 2" horiz-adv-x="1000" />

<glyph glyph-name="shield-half" unicode="&#xe83d;" d="M480 806c-17-4-30-12-54-32-45-37-120-75-173-86a349 349 0 0 0-39-5c-27-1-36-4-50-13-19-12-33-32-37-53-2-5-2-62-1-180 0-186 0-180 9-223 27-121 114-219 255-284 29-13 57-25 82-33 15-5 19-6 31-5a100 100 0 0 1 28 5c62 22 132 56 177 89 46 33 85 74 112 116a383 383 0 0 1 45 112c9 43 9 37 10 222 0 187 0 184-9 202-9 17-30 36-48 41-5 2-19 4-32 4-40 3-75 13-118 33a461 461 0 0 0-98 61c-18 15-23 19-32 23a91 91 0 0 1-58 6m-22-814c-2-1-33 13-56 25-43 22-74 44-101 70-56 54-85 114-91 192-1 13-2 83-2 171v150l18 1c63 4 141 33 210 77l22 15 0-350c0-193 0-351 0-351m140 666c59-33 123-54 177-57l17-1-1-164c0-178 0-174-10-213-17-67-59-125-124-171-25-18-69-42-102-56l-13-6v703l17-11c10-7 27-17 39-24" horiz-adv-x="1000" />

<glyph glyph-name="shield-minus" unicode="&#xe83e;" d="M484 807c-18-3-33-12-58-33-45-37-120-75-173-86a349 349 0 0 0-39-5c-27-1-36-4-50-13-19-12-33-32-37-53-2-5-2-62-1-180 0-186 0-180 9-223 27-121 114-219 255-284 29-13 57-25 82-33 15-5 19-6 31-5a100 100 0 0 1 28 5c62 22 132 56 177 89 46 33 85 74 112 116a383 383 0 0 1 45 112c9 43 9 37 10 222 0 187 0 184-9 202-9 17-30 36-48 41-5 2-19 4-32 4-40 3-75 13-118 33a461 461 0 0 0-98 61c-19 16-24 19-34 24a92 92 0 0 1-52 6m28-90c76-65 180-111 263-116l17-1-1-164c0-178 0-174-10-213-17-67-59-125-124-171-36-26-86-51-142-72l-14-5-20 7c-78 29-137 64-180 105-56 54-85 114-91 192-1 13-2 83-2 171v150l18 1c81 5 187 52 262 116 5 5 11 8 12 8 2 0 7-3 12-8m-150-328a43 43 0 0 1-23-19c-4-6-5-9-5-20 0-11 1-14 5-20 5-9 13-16 22-19 10-4 269-4 278 0 9 3 17 10 22 19 4 6 5 9 5 20 0 11-1 14-5 20a43 43 0 0 1-24 19c-11 4-264 4-275 0" horiz-adv-x="1000" />

<glyph glyph-name="shield-off" unicode="&#xe83f;" d="M70 806c-10-4-18-10-23-19-4-7-4-10-4-20s0-14 4-20c2-4 25-28 49-53l45-44-4-6c-2-3-5-10-7-15l-4-10v-174c0-135 0-178 2-191 21-158 121-270 306-343 63-25 70-25 129-2 51 20 102 47 138 72 17 12 49 38 56 45l4 4 66-66c36-36 68-67 71-68 5-3 10-4 19-4 10 0 13 1 20 5 20 12 27 38 16 57-3 4-194 196-426 428-389 389-422 421-429 424a42 42 0 0 1-28 0m414 1c-16-3-30-11-52-28-12-9-28-21-36-27l-28-18c-10-7-13-10-17-17a42 42 0 0 1-2-32c2-9 13-20 22-25 9-4 23-4 32-1 15 7 59 36 83 56 6 6 13 10 14 10 2 0 7-3 12-8 76-65 180-111 262-116l18-1v-151c0-100-1-159-2-174-3-29-1-35 11-48 17-17 40-18 57-1 17 15 17 19 17 220 0 177 0 174-9 192-9 17-30 36-48 41-5 2-19 4-32 4-40 3-75 13-118 33a461 461 0 0 0-98 61c-19 16-24 19-34 24a92 92 0 0 1-52 6m213-723c-6-6-32-27-47-37-37-25-83-48-135-67l-14-5-20 7c-78 29-137 64-180 105-56 54-85 114-91 192-1 13-2 80-2 163v141l247-247 247-247-5-5" horiz-adv-x="1000" />

<glyph glyph-name="shield-plus" unicode="&#xe840;" d="M484 807c-18-3-33-12-58-33-45-37-120-75-173-86a349 349 0 0 0-39-5c-27-1-36-4-50-13-19-12-33-32-37-53-2-5-2-62-1-180 0-186 0-180 9-223 27-121 114-219 255-284 29-13 57-25 82-33 15-5 19-6 31-5a100 100 0 0 1 28 5c62 22 132 56 177 89 46 33 85 74 112 116a383 383 0 0 1 45 112c9 43 9 37 10 222 0 187 0 184-9 202-9 17-30 36-48 41-5 2-19 4-32 4-40 3-75 13-118 33a461 461 0 0 0-98 61c-19 16-24 19-34 24a92 92 0 0 1-52 6m28-90c76-65 180-111 263-116l17-1-1-164c0-178 0-174-10-213-17-67-59-125-124-171-36-26-86-51-142-72l-14-5-20 7c-78 29-137 64-180 105-56 54-85 114-91 192-1 13-2 83-2 171v150l18 1c81 5 187 52 262 116 5 5 11 8 12 8 2 0 7-3 12-8m-25-203a43 43 0 0 1-23-19l-5-7 0-48-1-48h-44c-47 0-54-1-65-9-3-3-8-9-10-13-4-6-5-9-5-20 0-11 1-14 5-20 2-5 7-10 10-13 11-8 15-8 64-9l45 0 1-48 0-48 5-8a42 42 0 0 1 72 0l5 8 0 48 1 48 45 0c49 1 53 1 64 9 3 3 8 8 10 13 4 6 5 9 5 20 0 11-1 14-5 20a50 50 0 0 1-10 13c-11 8-17 9-65 9h-44l-1 48 0 48-5 7a42 42 0 0 1-49 19" horiz-adv-x="1000" />

<glyph glyph-name="shield-question" unicode="&#xe841;" d="M484 807c-18-3-33-12-58-33-45-37-120-75-173-86a349 349 0 0 0-39-5c-27-1-36-4-50-13-19-12-33-32-37-53-2-5-2-62-1-180 0-186 0-180 9-223 27-121 114-219 255-284 29-13 57-25 82-33 15-5 19-6 31-5a100 100 0 0 1 28 5c62 22 132 56 177 89 46 33 85 74 112 116a383 383 0 0 1 45 112c9 43 9 37 10 222 0 187 0 184-9 202-9 17-30 36-48 41-5 2-19 4-32 4-40 3-75 13-118 33a461 461 0 0 0-98 61c-19 16-24 19-34 24a92 92 0 0 1-52 6m28-90c76-65 180-111 263-116l17-1-1-164c0-178 0-174-10-213-17-67-59-125-124-171-36-26-86-51-142-72l-14-5-20 7c-78 29-137 64-180 105-56 54-85 114-91 192-1 13-2 83-2 171v150l18 1c81 5 187 52 262 116 5 5 11 8 12 8 2 0 7-3 12-8m-51-122c-43-10-85-39-106-75-16-27-21-46-14-61 8-20 33-30 52-23 12 5 20 13 28 30a85 85 0 0 0 42 42c11 5 14 6 28 7 27 1 48-7 66-26a75 75 0 0 0 22-47c1-13 1-15-2-24-9-23-45-51-87-67-11-5-18-9-23-14a44 44 0 0 1-12-29c0-22 20-41 42-41 18 0 68 24 99 48 48 37 70 79 67 128-4 64-48 124-108 146-28 10-67 12-94 6m26-414a44 44 0 0 1-23-19c-4-7-5-10-5-20 0-11 1-14 5-21 22-37 78-22 78 21a41 41 0 0 1-23 37 49 49 0 0 1-32 2" horiz-adv-x="1000" />

<glyph glyph-name="shield-x" unicode="&#xe842;" d="M484 807c-18-3-33-12-58-33-45-37-120-75-173-86a349 349 0 0 0-39-5c-27-1-36-4-50-13-19-12-33-32-37-53-2-5-2-62-1-180 0-186 0-180 9-223 27-121 114-219 255-284 29-13 57-25 82-33 15-5 19-6 31-5a100 100 0 0 1 28 5c62 22 132 56 177 89 46 33 85 74 112 116a383 383 0 0 1 45 112c9 43 9 37 10 222 0 187 0 184-9 202-9 17-30 36-48 41-5 2-19 4-32 4-40 3-75 13-118 33a461 461 0 0 0-98 61c-19 16-24 19-34 24a92 92 0 0 1-52 6m28-90c76-65 180-111 263-116l17-1-1-164c0-178 0-174-10-213-17-67-59-125-124-171-36-26-86-51-142-72l-14-5-20 7c-78 29-137 64-180 105-56 54-85 114-91 192-1 13-2 83-2 171v150l18 1c81 5 187 52 262 116 5 5 11 8 12 8 2 0 7-3 12-8m-135-226a41 41 0 0 1-22-28c-2-10 1-23 5-30 2-3 21-23 42-44l39-39-39-39c-21-21-40-41-41-43-12-17-6-44 12-56 12-9 33-9 44-2 3 2 23 21 44 42l39 39 39-39c21-21 41-40 44-42 11-7 32-7 45 2 17 12 23 39 12 56-2 2-21 22-42 43l-39 39 40 40c29 29 40 41 43 47 12 28-7 58-38 58-17 0-21-3-64-46l-40-40-40 40c-28 28-41 40-47 43a44 44 0 0 1-36-1" horiz-adv-x="1000" />

<glyph glyph-name="ship" unicode="&#xe843;" d="M487 806a43 43 0 0 1-23-19l-5-8 0-48-1-47-94-1-95-1-13-4c-40-12-71-43-85-84l-3-11-1-126 0-126-32-14c-50-22-53-26-51-75 2-59 12-109 33-167 8-21 29-66 40-85 4-7 7-13 7-13a62 62 0 0 0-12 3c-11 4-22 11-41 26-14 11-25 13-40 8-30-9-39-47-16-69 10-10 37-29 49-35 56-28 133-24 183 10 6 4 21 15 33 24 36 27 44 30 78 30 32 0 40-3 77-32 12-9 26-20 33-24 55-36 141-35 196 2 5 4 21 15 33 24 36 27 44 30 77 30 31 0 40-4 71-27 18-14 29-17 45-11 26 9 36 39 21 63-8 12-52 41-74 49l-5 2 7 19c24 60 38 127 38 185 0 36-5 42-51 63l-32 14-1 126 0 126-4 11c-14 41-45 72-85 84l-13 4-95 1-94 1-1 47 0 48-5 8a42 42 0 0 1-49 19m234-208a37 37 0 0 0 16-11c13-12 13-10 13-121 0-54 0-98-1-98s-46 21-102 45c-55 25-106 47-113 49-17 6-51 6-68 0-7-2-58-24-113-49a11472 11472 0 0 0-102-45c-1 0-1 44-1 98 0 111 0 109 13 121 13 14-3 13 236 13 187 0 215 0 222-2m-262-287l0-57 5-8c3-5 9-11 13-14 20-13 46-7 59 14l5 8 0 57c1 32 1 57 2 57 1 0 66-28 145-64l143-63 0-7c2-23-11-87-26-126-8-20-21-49-24-51a124 124 0 0 0-16-5c-28-7-43-15-81-43-13-11-29-21-35-24-25-13-64-13-89-1a140 140 0 0 0-20 13c-38 29-47 36-62 43-30 15-64 20-101 17-40-4-64-14-104-44-11-8-20-14-21-14-4 2-24 35-35 55-29 57-43 106-49 178l-1 8 144 64c80 35 145 64 146 64 1 0 1-25 2-57" horiz-adv-x="1000" />

<glyph glyph-name="ship-wheel" unicode="&#xe844;" d="M487 806a43 43 0 0 1-23-19c-5-7-5-9-5-36l-1-29-10-1c-54-6-132-38-174-72l-7-6-18 17c-19 19-27 23-41 23-14 0-28-8-36-21-4-7-4-10-4-20 0-16 2-20 22-41l17-17-10-13c-34-47-59-108-67-163l-3-15-27-1c-15-1-30-2-32-3-25-11-34-42-18-64 3-3 9-8 13-11 8-5 9-5 36-6l28 0 3-15c8-56 33-117 67-164l10-13-17-17c-20-21-22-24-22-41 0-10 0-13 4-20a41 41 0 0 1 41-21c12 2 18 5 36 23l17 17 8-6c47-36 112-63 169-72l15-2 0-28c1-28 1-29 6-37a42 42 0 0 1 72 0c5 8 5 9 6 37l1 28 15 2c57 9 122 36 169 72l7 6 17-17c19-18 24-21 36-23a41 41 0 0 1 41 21c4 7 5 10 5 20-1 17-3 20-23 41l-17 17 6 8c36 47 63 112 72 169l2 15 28 0c27 1 29 1 36 6a42 42 0 0 1-5 75c-2 1-17 2-32 3l-27 1-2 15c-9 57-36 122-72 169l-6 7 17 17c20 21 22 25 23 41 0 10-1 13-5 20a44 44 0 0 1-36 21c-13 0-21-4-40-23l-18-17-8 6c-42 34-120 66-174 72l-10 1-1 29c0 27 0 29-5 36a42 42 0 0 1-49 19m-29-242c0-69 0-74-3-75a273 273 0 0 1-13-6l-11-5-52 52c-29 29-52 53-52 54 0 2 22 16 39 25 26 13 66 27 90 29 2 0 2-15 2-74m114 68a292 292 0 0 0 63-24c16-8 38-22 38-24 0-1-23-25-52-54l-52-52-11 5a273 273 0 0 1-13 6c-3 1-3 6-3 75v74l7-1c4 0 14-2 23-5m-253-160l52-52-5-14-6-13-74-1-74 0 1 7c3 25 15 60 29 86 8 16 23 38 24 38 1 0 25-23 53-51m424 40c21-33 39-78 44-113l1-7-74 0-74 1-6 13-5 13 52 52c28 29 52 52 53 52 0 0 4-5 9-11m-216-106c12-6 24-19 30-30 3-7 4-11 4-26 0-16-1-18-5-27a83 83 0 0 0-14-19c-12-11-24-16-42-16-18 0-30 5-42 16a83 83 0 0 0-14 19c-4 9-5 11-5 27 0 15 1 19 4 26 8 15 22 28 37 33 4 2 11 3 22 2 14 0 17-1 25-5m-161-112l5-14-52-52-52-52-4 4c-5 7-19 30-25 43-11 21-22 57-25 78l-1 7 74 0 74 0 6-14m421 7c-3-21-14-57-25-78-6-13-20-36-25-43l-3-4-53 52-52 53 4 11c3 6 5 12 6 13 1 3 6 3 75 3h74l-1-7m-329-165l0-75-7 2a319 319 0 0 0-79 25c-13 7-36 20-42 25l-4 4 52 52 52 52 14-5 14-6 0-74m215-20c0-1-22-16-38-24a307 307 0 0 0-86-29l-7-2 0 75 1 74 13 6 13 5 52-52c29-28 52-52 52-53" horiz-adv-x="1000" />

<glyph glyph-name="shirt" unicode="&#xe845;" d="M229 776c-62-21-102-35-111-39-20-11-41-32-52-54-18-35-18-47-1-145 14-82 15-88 21-101 6-12 24-30 36-36 17-8 26-9 58-9h28l1-200 0-200 5-12c7-21 15-34 32-51 16-17 30-25 50-32l13-5h380l13 4c40 13 71 43 85 85l4 11 0 200 1 199 33 1c31 1 33 1 44 5 21 9 39 26 47 46 4 8 25 128 31 169 3 25-1 46-13 71-7 14-11 19-23 31-13 13-18 17-30 23-19 9-204 71-213 71-11 0-23-4-30-12-9-9-12-18-14-38-3-52-38-96-89-112-18-5-52-5-70 0a126 126 0 0 0-44 24c-29 25-42 52-46 92-1 15-2 19-6 25a45 45 0 0 1-37 21c-3 0-49-14-103-32m85-102c28-57 82-98 146-112 10-2 21-3 40-3 19 0 30 1 40 3a214 214 0 0 1 128 82c10 14 25 42 30 57l3 10 70-23c45-15 72-25 77-28 9-7 16-20 16-33 0-5-6-41-12-80a8360 8360 0 0 1-12-71c0-1-21-1-47-1-52 0-58-1-69-9-3-3-8-8-10-12l-5-8-1-220c0-171-1-221-3-225a48 48 0 0 0-18-21l-8-4-176-1c-196 0-185-1-197 11a58 58 0 0 0-10 13c-3 7-3 13-4 227l-1 220-5 8a50 50 0 0 1-10 12c-11 8-17 9-69 9-26 0-47 0-47 1 0 0-5 33-12 71-6 39-12 75-12 81 0 13 7 25 16 32 4 2 37 14 77 28l70 23 4-12c3-7 8-19 11-25" horiz-adv-x="1000" />

<glyph glyph-name="shopping-bag" unicode="&#xe846;" d="M239 807c-14-4-17-8-83-96-36-48-67-90-69-94l-4-8 1-308 0-309 4-11c14-42 45-72 85-85l13-4h628l13 4c40 13 71 43 85 85l4 11 0 309 1 308-4 8c-6 13-134 180-140 184a55 55 0 0 1-12 6c-9 2-514 2-522 0m521-124l32-41h-584l32 41 31 42h458l31-42m73-398c0-226 0-274-2-280a43 43 0 0 0-19-25l-8-4h-608l-8 4a50 50 0 0 0-12 11c-10 13-9-5-9 293v274h666v-273m-512 188a43 43 0 0 1-24-19c-4-8-4-9-4-27 0-73 45-144 112-178 33-17 58-23 95-23 37 0 62 6 95 23 67 34 112 105 113 178 0 18-1 19-5 27-16 27-56 27-72 0-4-6-5-11-6-26-4-40-17-66-46-91a126 126 0 0 0-44-24c-18-5-52-5-70 0a126 126 0 0 0-44 24c-29 25-42 51-46 91-1 15-2 20-6 26a42 42 0 0 1-48 19" horiz-adv-x="1000" />

<glyph glyph-name="shopping-basket" unicode="&#xe847;" d="M361 722c-15-5-15-5-98-150l-79-139h-52c-58 0-63 0-74-9a43 43 0 0 1-15-43c3-10 11-20 20-25 7-5 10-5 29-6l20-1 31-140c16-77 32-145 34-151 5-17 14-31 29-45 14-15 26-22 42-29 23-9 16-9 252-9 233 0 230 0 251 8 14 6 30 17 43 30 15 14 23 26 29 42 2 6 18 74 35 150 18 77 33 141 33 142 1 3 3 3 17 3 24 0 36 6 45 21 4 7 5 10 5 21 0 10-1 13-5 20a50 50 0 0 1-11 12c-11 9-16 9-73 9h-53l-79 139c-59 102-81 140-85 143a48 48 0 0 1-26 10c-17 0-35-12-40-28-6-19-9-14 66-146l68-118h-440l68 118c61 107 67 119 68 128a42 42 0 0 1-55 43m-18-422c3-27 5-50 5-52 0-3-4-3-64-3-35 0-64 0-64 1 0 0-5 23-11 50a1699 1699 0 0 0-11 52c0 2 15 2 70 2h70l5-50m235 43c-1-7-11-96-11-97 0-1-30-1-67-1-37 0-67 0-67 1 0 1-10 90-10 97l-1 7h157l-1-7m227 5c0-2-21-94-23-100 0-3-5-3-65-3-61 0-65 0-65 3 0 2 2 25 5 52l5 50h72c56 0 71 0 71-2m-446-193c1-3 3-23 5-45 3-21 5-42 5-45l1-7-42 0c-39 0-43 1-50 4a46 46 0 0 0-20 17c-2 4-19 76-20 82 0 1 27 1 60 1h60l1-7m198 5c0-2-3-25-6-52l-5-50h-92l-5 50a3219 3219 0 0 0-6 52c0 1 13 2 57 2s57-1 57-2m205-1c0-5-17-74-19-79-3-5-12-14-20-18-5-2-10-3-49-3l-44-1 1 7c0 3 3 24 5 45 2 22 5 42 5 45l1 7h60c51 0 60-1 60-3" horiz-adv-x="1000" />

<glyph glyph-name="shopping-cart" unicode="&#xe848;" d="M76 805a42 42 0 0 1-30-29 29 29 0 0 1-1-19c2-12 9-21 19-28l8-5 32 0 31-1 2-8c1-4 24-114 52-245s53-242 54-248c6-15 15-30 30-45a125 125 0 0 1 50-31l13-5 223-1c158 0 227 0 234 2 25 4 47 16 66 36 14 13 22 26 28 43 3 6 20 83 40 171 29 131 35 160 34 168a41 41 0 0 1-31 37c-6 1-116 1-346 1-185 0-337 1-337 1 0 1-9 41-19 91-21 95-22 99-33 107-12 9-13 9-64 9-27 0-51 0-55-1m792-294l-30-131c-15-71-29-131-31-135-4-8-15-17-23-20-9-2-427-2-436 0-7 2-20 13-24 20-1 3-15 63-30 134a38821 38821 0 0 1-28 132l-1 4h604l-1-4m-556-456c-28-7-52-31-59-60a86 86 0 0 1 6-59c6-11 24-29 36-35a85 85 0 0 1 77 0c11 6 30 24 35 35a85 85 0 0 1 7 59 75 75 0 0 1-20 36 82 82 0 0 1-61 27c-6 0-15-1-21-3m458 0c-28-7-52-31-59-60a86 86 0 0 1 7-59c5-11 24-29 35-35a85 85 0 0 1 77 0c12 6 30 24 36 35a85 85 0 0 1 7 59 75 75 0 0 1-20 36 82 82 0 0 1-61 27c-6 0-16-1-22-3" horiz-adv-x="1000" />

<glyph glyph-name="shovel" unicode="&#xe849;" d="M694 806c-13-5-49-42-63-65-32-53-37-117-13-173 3-7 8-17 10-20l4-7-118-118-118-118-41 41c-38 38-41 41-50 43-11 3-15 3-27 0-8-2-12-6-120-114-101-101-111-112-114-119-2-7-2-21-2-119 0-89 0-113 2-117 3-10 10-18 19-23l8-5 113 0c102 0 114 0 122 2 8 3 16 11 117 112 62 61 111 111 113 116 4 6 5 9 5 20 0 9-1 14-3 18-2 3-21 24-43 46l-40 40 118 118 118 118 7-4c3-2 13-7 20-10 62-26 132-18 187 23 13 10 43 39 48 47 4 7 5 10 5 20 0 11-1 14-5 20-2 5-52 55-113 116-99 99-110 109-117 112a43 43 0 0 1-29 0m160-250c-4-4-28-15-38-18-11-2-38-2-49 0a150 150 0 0 0-22 9 107 107 0 0 0-48 48 126 126 0 0 0-8 23 161 161 0 0 0 0 47c2 10 11 30 16 37l4 5 74-74c71-71 73-74 71-77m-487-340l74-74-83-84-84-83h-149v149l83 83a5984 5984 0 0 0 84 83c0 0 34-33 75-74" horiz-adv-x="1000" />

<glyph glyph-name="shower-head" unicode="&#xe84a;" d="M153 723c-9-4-18-11-23-19-3-7-4-10-4-21 0-8 1-14 3-18 2-3 22-25 45-48l41-42-8-14c-42-69-48-152-17-226 7-16 21-41 24-43 1 0-8-10-19-22s-23-23-24-27c-2-4-3-9-3-18 0-11 0-14 4-20 6-10 16-17 25-20 9-2 22-1 30 3 8 3 429 424 434 434 4 6 5 9 5 20s-1 13-5 20a42 42 0 0 1-50 19c-7-3-13-7-30-24l-22-21-12 7c-38 24-81 36-129 36-48 0-88-11-129-36l-14-8-43 42c-37 37-44 43-51 45a42 42 0 0 1-28 1m284-128c8-1 18-3 24-4 11-3 37-14 37-16 0-1-222-223-223-223-2 0-13 26-16 37-22 87 28 176 112 200a153 153 0 0 0 66 6m217-122a43 43 0 0 1-24-19c-3-7-4-10-4-21 0-13 3-22 12-30 20-19 53-13 66 11 5 11 5 29-1 40a42 42 0 0 1-49 19m167-42a43 43 0 0 1-24-19c-4-7-4-10-4-20 0-14 3-22 11-31 20-18 54-13 67 12 5 10 5 29-1 39a42 42 0 0 1-49 19m-292-83a43 43 0 0 1-24-19c-3-7-4-10-4-21 0-13 3-22 12-30 20-19 53-13 66 11 5 11 5 29-1 40a42 42 0 0 1-49 19m167-42a43 43 0 0 1-24-19c-4-7-4-10-4-20 0-14 3-22 11-31 20-18 54-13 67 12 5 10 5 29-1 39a42 42 0 0 1-49 19m-292-83a43 43 0 0 1-24-19c-3-7-4-10-4-21 0-13 3-22 12-30 20-19 53-13 66 11 5 11 5 29-1 40a42 42 0 0 1-49 19m167-42a43 43 0 0 1-24-19c-4-7-4-10-4-20 0-14 3-22 11-31 20-18 54-13 67 12 5 10 5 29-1 39a42 42 0 0 1-49 19m-125-125a43 43 0 0 1-24-19c-4-7-4-10-4-20 0-14 3-23 11-31 20-19 54-13 67 11 5 11 5 30-1 40a42 42 0 0 1-49 19" horiz-adv-x="1000" />

<glyph glyph-name="shrink" unicode="&#xe84b;" d="M111 764c-9-3-17-10-22-19-4-6-5-9-5-20 0-9 1-14 3-18 2-3 45-48 95-98l92-92h-52c-56 0-62-1-73-9-3-3-8-9-10-13-4-6-5-9-5-20 0-11 1-14 5-20 5-9 13-16 22-19 9-3 219-3 228 0 9 3 17 10 22 19l5 8v225l-5 7a42 42 0 0 1-72 0l-5-7 0-56-1-56-93 93c-83 83-93 93-101 95a42 42 0 0 1-28 0m749 0c-6-2-21-16-100-95l-93-93-1 56 0 56-5 7a42 42 0 0 1-72 0l-5-7v-225l5-8c5-9 13-16 22-19 9-3 219-3 228 0 9 3 17 10 22 19 4 6 5 9 5 20 0 11-1 14-5 20a50 50 0 0 1-10 13c-11 8-17 9-73 9h-52l92 92c50 50 93 95 95 98 2 4 3 9 3 18 0 11-1 14-5 20a42 42 0 0 1-51 19m-698-500a43 43 0 0 1-23-19c-4-6-5-9-5-20 0-11 1-14 5-20 2-5 7-10 10-13 11-8 15-8 72-9l53 0-92-92c-50-50-93-94-94-98-10-18-2-43 17-54 6-4 9-5 20-5 9 0 14 1 18 3 4 2 48 45 98 95l92 92 1-56 0-56 5-8a42 42 0 0 1 72 0l5 8v226l-5 7a44 44 0 0 1-23 19c-9 4-215 4-226 0m449 0c-9-3-17-10-22-19l-5-7v-226l5-8a42 42 0 0 1 72 0l5 8 0 56 1 56 92-92c50-50 94-93 98-95 18-9 43-1 54 17 4 7 5 10 5 21 0 9-1 14-3 18-2 3-45 48-95 98l-92 92 53 0c58 1 61 1 72 9 3 3 8 8 10 13 4 6 5 9 5 20 0 11-1 14-5 20a43 43 0 0 1-24 19c-11 4-216 4-226 0" horiz-adv-x="1000" />

<glyph glyph-name="shrub" unicode="&#xe84c;" d="M474 765c-108-11-197-92-219-199a191 191 0 0 1-3-21c0-4-4-7-16-17-65-53-105-130-113-217-5-63 14-139 50-194a316 316 0 0 1 128-112c42-20 75-28 124-30l33-1 1-27c0-26 0-27 5-35a42 42 0 0 1 72 0c5 8 5 9 5 36l1 27 39 0c43 1 60 4 93 14 87 28 159 100 187 187 11 36 13 49 13 90 0 44-3 64-16 101-18 50-56 101-98 132l-9 7-1 21a247 247 0 0 1-72 165c-54 54-127 81-204 73m51-84a166 166 0 0 0 122-88c15-28 20-51 20-91 0-37 2-42 28-59 30-20 46-36 63-62 13-20 21-39 27-61 9-31 9-73 0-105a235 235 0 0 0-30-68c-24-34-65-65-104-78-24-8-33-9-72-10l-37-1v108l37 37c20 20 38 40 41 44 4 6 4 9 4 20s0 13-4 20a42 42 0 0 1-51 19c-6-3-12-7-28-23l-20-19-41 40c-35 35-42 41-49 43a42 42 0 0 1-51-18c-3-7-4-10-4-21s1-13 4-20c3-4 21-24 42-44l36-36v-150l-29 1c-17 0-35 2-41 3-41 10-73 26-106 54-38 33-63 81-73 134-3 19-3 56 0 75 11 61 44 114 97 151 9 7 18 14 20 16 4 7 7 18 7 26 0 12 5 39 9 51 10 29 30 59 53 77 38 30 83 42 130 35" horiz-adv-x="1000" />

<glyph glyph-name="sigma" unicode="&#xe84d;" d="M256 723c-17-4-34-19-42-35-4-9-5-12-5-25 0-13 1-17 5-25 2-5 48-67 101-139 67-89 98-132 100-137a40 40 0 0 0 0-24c-2-5-33-48-100-137-53-71-99-134-101-139-4-8-5-12-5-24 0-13 1-17 5-25 6-14 19-27 32-33l10-4 231-1c156 0 233 0 239 2 21 4 46 23 56 42 9 18 10 25 9 82l0 53-5 8a42 42 0 0 1-72 0l-5-8 0-48-1-48h-197c-109 0-198 1-198 1 0 0 38 51 85 113 86 115 92 124 98 146 4 15 4 49 0 64-6 22-12 31-98 146a14758 14758 0 0 0-85 113c0 0 89 1 198 1h197l1-48 0-48 5-9a42 42 0 0 1 72 0l5 9 0 52c1 56 0 65-8 82-6 11-21 26-32 33-20 13-5 12-260 12-127 0-231-1-235-2" horiz-adv-x="1000" />

<glyph glyph-name="shuffle" unicode="&#xe84e;" d="M736 806c-9-4-17-10-22-19-4-7-5-10-5-20 0-9 1-14 3-19 2-3 26-28 53-56l51-50-89-1c-93-1-96-1-123-9a258 258 0 0 1-54-26 245 245 0 0 1-46-43c-5-6-60-91-122-190-123-194-125-197-148-211a122 122 0 0 0-34-16c-10-3-17-3-69-4-40-1-60-2-63-3a47 47 0 0 1-21-19c-4-6-4-9-4-20 0-11 0-14 4-20 6-10 16-17 25-20 11-3 121-1 135 2a238 238 0 0 1 77 32 245 245 0 0 1 46 43c4 6 59 92 122 191 116 183 123 192 141 206 11 8 27 16 41 20 11 3 17 3 97 4l85 1-50-51c-28-28-52-53-53-56-10-19-2-44 17-55 6-4 9-4 20-4 9 0 14 1 18 3 4 1 46 42 94 90 96 96 96 96 96 114 0 18 0 18-97 114-80 80-89 89-97 92a42 42 0 0 1-28 0m-665-167c-27-8-38-41-21-64 3-3 9-8 13-11l8-5 58-1c66-1 68-1 94-14 22-11 41-29 54-52 13-22 34-31 55-21 23 10 31 36 19 59a201 201 0 0 1-35 48 211 211 0 0 1-124 62c-21 3-113 2-121-1m665-333c-9-4-17-10-22-19-4-7-5-10-5-20 0-9 1-14 3-19 2-3 26-28 54-56l50-50-86 0-86 1-16 5c-28 10-45 23-69 55-15 19-23 26-32 29a41 41 0 0 1-56-38c0-13 3-19 24-45 32-42 64-66 105-80 30-9 29-9 126-10l90-1-50-50c-28-28-52-53-53-56-10-19-2-44 17-55 6-4 9-5 20-5 9 0 14 1 18 4 4 1 46 42 94 90 96 96 96 96 96 114 0 18 0 18-97 114-80 80-89 89-97 92a42 42 0 0 1-28 0" horiz-adv-x="1000" />

<glyph glyph-name="signal" unicode="&#xe84f;" d="M904 723a43 43 0 0 1-24-19l-4-8v-692l5-8a42 42 0 0 1 72 0l5 8v692l-5 8a42 42 0 0 1-49 19m-208-167a43 43 0 0 1-24-19l-4-8v-525l5-8a42 42 0 0 1 71 0l5 8v525l-4 8a42 42 0 0 1-49 19m-209-167a43 43 0 0 1-23-19l-5-7v-359l5-8a42 42 0 0 1 72 0l5 8v359l-5 7a42 42 0 0 1-49 19m-208-166a43 43 0 0 1-24-19l-4-8v-192l5-8c3-5 8-11 13-14 20-13 46-7 59 14l5 8v192l-5 8a42 42 0 0 1-49 19m-208-167a44 44 0 0 1-24-19c-4-7-4-10-4-20 0-11 0-14 4-21 22-37 78-22 78 21a41 41 0 0 1-22 37 49 49 0 0 1-32 2" horiz-adv-x="1000" />

<glyph glyph-name="signal-high" unicode="&#xe850;" d="M696 556a43 43 0 0 1-24-19l-4-8v-525l5-8a42 42 0 0 1 71 0l5 8v525l-4 8a42 42 0 0 1-49 19m-209-167a43 43 0 0 1-23-19l-5-7v-359l5-8a42 42 0 0 1 72 0l5 8v359l-5 7a42 42 0 0 1-49 19m-208-166a43 43 0 0 1-24-19l-4-8v-192l5-8c3-5 8-11 13-14 20-13 46-7 59 14l5 8v192l-5 8a42 42 0 0 1-49 19m-208-167a44 44 0 0 1-24-19c-4-7-4-10-4-20 0-11 0-14 4-21 22-37 78-22 78 21a41 41 0 0 1-22 37 49 49 0 0 1-32 2" horiz-adv-x="1000" />

<glyph glyph-name="signal-low" unicode="&#xe851;" d="M279 223a43 43 0 0 1-24-19l-4-8v-192l5-8c3-5 8-11 13-14 20-13 46-7 59 14l5 8v192l-5 8a42 42 0 0 1-49 19m-208-167a44 44 0 0 1-24-19c-4-7-4-10-4-20 0-11 0-14 4-21 22-37 78-22 78 21a41 41 0 0 1-22 37 49 49 0 0 1-32 2" horiz-adv-x="1000" />

<glyph glyph-name="signal-medium" unicode="&#xe852;" d="M487 389a43 43 0 0 1-23-19l-5-7v-359l5-8a42 42 0 0 1 72 0l5 8v359l-5 7a42 42 0 0 1-49 19m-208-166a43 43 0 0 1-24-19l-4-8v-192l5-8c3-5 8-11 13-14 20-13 46-7 59 14l5 8v192l-5 8a42 42 0 0 1-49 19m-208-167a44 44 0 0 1-24-19c-4-7-4-10-4-20 0-11 0-14 4-21 22-37 78-22 78 21a41 41 0 0 1-22 37 49 49 0 0 1-32 2" horiz-adv-x="1000" />

<glyph glyph-name="signal-zero" unicode="&#xe853;" d="M71 56a44 44 0 0 1-24-19c-4-7-4-10-4-20 0-11 0-14 4-21 22-37 78-22 78 21a41 41 0 0 1-22 37 49 49 0 0 1-32 2" horiz-adv-x="1000" />

<glyph glyph-name="signature" unicode="&#xe854;" d="M541 807a149 149 0 0 1-109-79c-11-23-19-57-38-157-22-114-39-191-42-189-6 4-110 11-132 9-63-5-113-45-131-105-4-14-5-18-5-40 0-22 1-27 5-40 15-50 50-85 101-100 12-4 17-5 38-5 19 0 25 0 36 4 57 16 103 69 139 159 4 11 8 20 8 21 1 1 30-9 46-16 29-13 47-23 62-39 13-12 19-24 21-39l3-22c3-16 10-31 23-44 7-6 16-13 20-16 17-8 24-9 81-9 57 0 63 1 80 9 13 7 30 25 37 39 3 6 5 11 5 12 1 0 15-12 32-26 17-15 33-28 36-30 8-4 21-5 31-2a41 41 0 0 1 23 19c4 7 5 10 5 20 0 20-1 21-58 71-60 52-64 54-87 54-13 0-17-1-25-5-13-6-20-11-27-22-7-11-11-23-11-41v-15h-82l-2 13c-6 72-66 129-175 165-11 3-14 5-13 7 7 24 22 92 37 171 20 108 27 137 34 152 6 11 19 23 31 29 8 4 12 4 25 4s16 0 24-4c12-6 24-17 30-28 17-31 5-68-28-86a73 73 0 0 1-15-12c-24-26-4-68 31-68 18 0 43 15 63 37 43 45 52 109 25 165-18 36-55 66-94 75-15 4-44 6-58 4m-269-500c28-2 53-5 54-6 2-1-9-26-18-45-18-34-37-57-56-67-8-4-11-5-24-5-12 0-15 1-24 5a70 70 0 0 0-32 32c-4 8-4 12-4 25 0 13 0 16 4 25 8 18 26 32 44 36 10 2 24 2 56 0m-160-293a43 43 0 0 1-23-19c-4-6-5-9-5-20 0-11 1-14 5-20 5-9 13-16 22-19 10-4 769-4 778 0 9 3 17 10 22 19 4 6 5 9 5 20 0 11-1 14-5 20a43 43 0 0 1-24 19c-11 4-764 4-775 0" horiz-adv-x="1000" />

<glyph glyph-name="signpost" unicode="&#xe855;" d="M487 764a43 43 0 0 1-23-19l-5-7 0-48-1-48-115-1c-115 0-116 0-128-4-14-4-30-13-41-21-10-8-109-104-115-111-23-28-23-73 0-101 6-8 105-104 115-112 10-7 27-16 40-21l12-3 116-1 116 0 1-153 0-152 5-8a42 42 0 0 1 72 0l5 8 0 152 1 153 116 0 116 1 12 3c14 5 31 14 41 22 9 8 98 93 109 105a83 83 0 0 1 14 93c-6 12-12 18-67 71-63 60-71 67-98 75-12 4-14 4-128 4l-115 1-1 48 0 48-5 7a42 42 0 0 1-49 19m277-208c7-3 14-9 43-37 19-18 43-40 52-49l16-16-48-46c-53-51-56-54-65-56-8-3-516-3-524 0-8 2-12 5-65 56l-48 46 16 16c10 9 33 31 52 49 27 26 37 35 42 37 7 2 38 2 264 2 234 0 258 0 265-2" horiz-adv-x="1000" />

<glyph glyph-name="signpost-big" unicode="&#xe856;" d="M479 807a124 124 0 0 1-59-28c-26-22-41-51-44-83l-1-13-110 0c-104 0-109-1-116-4-8-4-96-90-102-101-4-6-4-9-4-20 0-10 0-13 4-20 2-4 25-28 51-53 40-40 47-46 54-49 8-2 21-3 116-3h107v-458h-23c-33 0-45-5-55-22-4-6-4-9-4-20 0-10 0-13 4-20 5-9 13-16 23-19 9-3 351-3 360 0 10 3 18 10 23 19 4 7 5 10 5 20 0 11-1 14-5 20-10 17-22 22-55 22h-23v458h107c96 0 108 1 116 3 7 3 14 9 54 49 26 25 49 49 51 53 4 7 5 10 5 20 0 11-1 14-5 20-6 11-94 97-102 101-6 3-12 4-116 4l-109 0-2 13c-4 49-40 93-88 107-15 4-43 6-57 4m34-84c12-4 23-15 26-27 2-7 3-50 3-365v-356h-84v356c0 401-1 368 13 381 12 12 26 15 42 11m-138-165v-41h-191l-21 21-20 20 20 21 21 21h191v-42m462 21l21-21-21-20-21-21h-191v83h191l21-21" horiz-adv-x="1000" />

<glyph glyph-name="siren" unicode="&#xe857;" d="M487 806a43 43 0 0 1-23-19c-5-8-5-8-5-41v-34l5-8a42 42 0 0 1 72 0l5 8v34c0 33 0 33-5 41a42 42 0 0 1-49 19m267-106c-9-4-34-28-40-38-4-7-5-10-5-20 0-11 1-14 5-21 12-20 37-27 57-15 10 6 33 31 37 40a41 41 0 0 1-37 57c-6 0-13-1-17-3m-555-14c-10-3-15-5-21-11a40 40 0 0 1-12-43c2-9 4-11 25-31 19-19 23-23 30-25a42 42 0 0 1 53 53c-2 7-6 12-24 30-11 11-23 22-27 23-6 3-19 5-24 4m275-88c-108-10-195-89-219-199-4-16-4-19-4-140l-1-123-14-7a130 130 0 0 1-64-76c-4-11-4-17-5-49-1-41 0-49 8-66 6-12 24-31 36-37 20-10 5-9 289-9 285 0 269-1 289 9 11 6 29 24 35 35 9 17 10 26 9 67-1 33-1 39-5 50a130 130 0 0 1-64 76l-14 7 0 123c-1 121-1 124-5 140-11 51-32 91-67 126-54 55-127 81-204 73m51-84c61-9 113-52 133-112 8-23 9-35 9-152v-108h-125l-1 110 0 111-5 7a42 42 0 0 1-72 0l-5-7 0-111-1-110h-125v108c0 117 1 129 9 152 10 29 30 59 53 77 38 30 83 42 130 35m-454-125a43 43 0 0 1-24-19c-4-6-4-9-4-20 0-11 0-14 4-20 5-9 13-16 23-19 8-3 60-3 69 0 9 3 17 10 22 19 4 6 5 9 5 20 0 11-1 14-5 20a43 43 0 0 1-24 19c-10 3-57 3-66 0m791 0a43 43 0 0 1-23-19c-4-6-5-9-5-20 0-11 1-14 5-20 5-9 13-16 22-19 9-3 61-3 69 0 10 3 18 10 23 19 4 6 5 9 5 20 0 11-1 14-5 20a43 43 0 0 1-24 19c-10 3-57 3-67 0m-141-333a37 37 0 0 0 16-10c11-11 13-19 13-48v-23h-500v23c0 29 2 37 13 48 13 13-3 12 236 12 187 0 215 0 222-2" horiz-adv-x="1000" />

<glyph glyph-name="skip-back" unicode="&#xe858;" d="M778 723a42 42 0 0 1-8-4c-2-1-98-78-215-172-175-140-213-171-217-177-3-6-4-10-4-20 0-10 1-14 4-20 4-6 42-37 217-177 117-94 215-172 218-174 5-2 9-3 19-3 10 0 13 0 20 4 9 6 16 14 19 23 2 5 2 67 2 346 0 230 0 342-1 346a44 44 0 0 1-21 25c-9 5-24 6-33 3m-582-42a43 43 0 0 1-24-19l-4-8v-608l5-9a42 42 0 0 1 71 0l5 9v608l-4 8a42 42 0 0 1-49 19m554-331v-247l-153 123c-85 68-153 124-153 125 0 1 304 245 306 246 0 0 0-111 0-247" horiz-adv-x="1000" />

<glyph glyph-name="skip-forward" unicode="&#xe859;" d="M196 723a44 44 0 0 1-24-19l-4-8-1-342c0-226 0-345 1-349 3-9 11-19 20-25 7-4 10-4 20-4 10 0 14 1 19 3 3 2 102 81 218 174 239 191 221 175 221 198 0 9-1 13-4 19-4 6-42 37-217 177-117 94-215 172-219 174a45 45 0 0 1-30 2m583-42a43 43 0 0 1-24-19l-4-8v-608l5-9a42 42 0 0 1 72 0l5 9v608l-5 8a42 42 0 0 1-49 19m-222-331c0-1-69-56-154-124l-153-123v494l153-123c85-67 154-123 154-124" horiz-adv-x="1000" />

<glyph glyph-name="skull" unicode="&#xe85a;" d="M473 766l-21-3c-67-7-139-39-196-87-71-59-118-149-129-246-5-38 0-91 10-133a376 376 0 0 1 70-139c7-9 10-13 9-15l-4-13c-5-20-4-48 2-68 2-4 6-13 9-20 11-22 45-53 64-58 4-1 5-2 5-11 0-21 8-40 25-57 11-11 23-18 38-22 14-4 276-4 291 0 15 4 26 11 38 22 16 17 24 36 24 58 0 8 1 9 5 10 19 5 53 36 64 58 3 7 7 16 9 20 6 20 7 48 2 68l-4 13c0 2 2 6 9 15a340 340 0 0 1 43 68c25 51 37 98 39 156a344 344 0 0 1-19 128c-33 98-100 174-193 219a356 356 0 0 1-113 34c-15 2-67 4-77 3m58-84c96-11 182-69 226-152 33-64 42-128 28-199-11-53-42-110-80-147-9-8-13-17-14-28-2-11 1-19 9-30 11-17 11-35-1-51-6-9-17-15-32-17a98 98 0 0 1-16-3 45 45 0 0 1-21-18c-4-7-4-9-5-35l0-27h-250l0 27c-1 27-1 28-6 35a40 40 0 0 1-28 20c-27 5-34 8-42 19-10 15-9 34 2 50 7 11 10 19 9 30-2 11-6 20-15 28-20 20-43 51-57 80-33 69-39 146-15 218 8 23 26 60 39 79 63 86 165 132 269 121m-178-252c-28-7-51-31-59-59a86 86 0 0 1 7-60c6-11 24-29 35-35a85 85 0 0 1 78 0c11 6 29 24 35 35a85 85 0 0 1 7 59 75 75 0 0 1-20 36 82 82 0 0 1-61 27c-6 0-16-1-22-3m250 0c-28-7-51-31-59-59a86 86 0 0 1 7-60c6-11 24-29 35-35a86 86 0 0 1 78 0c11 6 29 24 35 35a85 85 0 0 1 7 59 75 75 0 0 1-20 36 82 82 0 0 1-61 27c-6 0-16-1-22-3m-117-208c-13-4-20-12-35-43-12-25-13-28-13-37 0-17 9-30 25-38 7-4 10-4 37-4s30 0 38 4c15 8 24 21 24 38 0 9-1 12-13 37-15 30-22 39-35 43a41 41 0 0 1-28 0" horiz-adv-x="1000" />

<glyph glyph-name="slack" unicode="&#xe85b;" d="M332 806a120 120 0 0 1-47-24c-13-11-25-30-30-45-4-11-4-16-4-34 0-18 1-22 5-33a108 108 0 0 1 64-64l13-5h96l8 5a45 45 0 0 1 20 25c1 4 1 22 1 51-1 43-1 44-5 56a106 106 0 0 1-121 68m250 0a120 120 0 0 1-47-24c-13-11-25-30-30-45l-4-13v-250l5-12a108 108 0 0 1 64-65c11-4 15-4 34-4 20 0 23 0 34 4a108 108 0 0 1 65 65l5 12v252l-5 12a106 106 0 0 1-121 68m-218-84c8-4 11-11 11-26v-13h-13c-14 0-21 3-25 11a20 20 0 0 0 7 28 19 19 0 0 0 20 0m250 0c2-1 6-5 8-7 3-6 3-10 3-115s0-109-3-114a23 23 0 0 0-18-11 23 23 0 0 0-17 11c-3 5-4 9-4 114 0 120 0 115 11 122a19 19 0 0 0 20 0m218-125a120 120 0 0 1-47-24c-13-11-25-29-30-45-4-12-4-14-4-60v-47l5-8c5-9 15-17 25-20 4-1 22-1 51-1 43 1 44 1 56 5a108 108 0 0 1 65 65c4 11 4 14 4 34 0 19 0 23-4 34a106 106 0 0 1-121 67m-709-41a120 120 0 0 1-47-24c-12-11-24-30-29-45-4-11-4-16-4-34 0-18 0-22 4-33a108 108 0 0 1 65-64l12-5h252l12 5a108 108 0 0 1 65 64c4 11 4 15 4 34 0 20 0 23-4 34a105 105 0 0 1-52 59c-23 11-23 11-152 11-92 0-117 0-126-2m741-42a23 23 0 0 0 11-18 23 23 0 0 0-11-18c-4-2-10-3-18-3h-13v13c0 14 3 21 11 25a19 19 0 0 0 20 1m-499-42c13-9 13-27 0-35-6-3-10-4-115-4-120 0-115 0-122 11a20 20 0 0 0 8 28c5 3 9 3 114 3s109 0 115-3m258-125a120 120 0 0 1-47-24c-12-11-24-29-29-45-4-10-4-15-4-33 0-18 0-22 4-33a108 108 0 0 1 65-65l12-4h252l12 4a108 108 0 0 1 65 65c4 11 4 14 4 34 0 19 0 23-4 34a105 105 0 0 1-52 59c-23 11-23 11-152 11-92 0-117-1-126-3m-500-41a120 120 0 0 1-47-24c-12-11-24-30-29-45-4-11-4-16-4-34 0-18 0-22 4-33a108 108 0 0 1 65-64c11-4 14-5 34-5 19 0 23 1 34 5a108 108 0 0 1 65 64l4 13v96l-4 8a43 43 0 0 1-25 19c-10 3-81 3-97 0m250 0a120 120 0 0 1-47-24c-12-11-24-30-29-45l-4-13v-250l4-12a108 108 0 0 1 65-65c11-4 15-4 34-4 19 0 23 0 34 4a108 108 0 0 1 65 65l4 12v252l-4 12a106 106 0 0 1-122 68m492-43a23 23 0 0 0 10-17 23 23 0 0 0-10-18c-6-3-10-3-115-3-120 0-115 0-122 11a20 20 0 0 0 8 27c5 4 9 4 114 4s109 0 115-4m-698-51c0-15-3-22-12-26a20 20 0 0 0-27 8 20 20 0 0 0 8 28c4 2 8 3 18 3h13v-13m238 10c3-1 7-5 8-7 4-6 4-10 4-115s0-109-4-115a23 23 0 0 0-17-10 23 23 0 0 0-18 10c-3 6-3 10-3 115 0 120 0 115 11 122a19 19 0 0 0 19 0m166-124a43 43 0 0 1-24-19l-4-8v-97l4-12c11-30 35-54 65-65 11-4 14-4 34-4 19 0 23 0 34 4a108 108 0 0 1 65 65c4 11 4 14 4 34 0 19 0 23-4 34a116 116 0 0 1-30 44 119 119 0 0 1-47 24c-16 3-87 3-97 0m85-85a23 23 0 0 0 11-17c0-10-11-21-21-21a22 22 0 0 0-18 10c-2 5-3 9-3 19v13h13c10 0 14-1 18-4" horiz-adv-x="1000" />

<glyph glyph-name="slash" unicode="&#xe85c;" d="M902 806c-7-3-59-54-429-424-232-232-423-424-426-428-11-19-4-45 16-57 7-4 10-5 20-5 11 0 14 1 20 5 10 6 847 843 851 851 3 5 4 10 4 19 0 10-1 13-5 20a42 42 0 0 1-51 19" horiz-adv-x="1000" />

<glyph glyph-name="slice" unicode="&#xe85d;" d="M811 765a124 124 0 0 1-61-25c-6-4-167-164-357-354-333-333-346-347-349-356-7-22 4-45 26-53 9-3 354-3 367 0 15 4 26 11 38 23 22 21 25 33 25 88 0 40 0 40 4 42 5 3 416 413 426 426 11 14 18 26 23 43 6 21 6 52 1 72-13 44-52 82-94 91a163 163 0 0 1-49 3m37-87c15-7 26-23 26-41 0-22 13-7-211-232l-205-204-33 33-32 33 203 203c120 121 206 205 210 207a49 49 0 0 0 42 1m-479-506c19-20 38-37 41-40l7-4v-70h-233l74 75c41 40 75 74 75 74 1 0 17-16 36-35" horiz-adv-x="1000" />

<glyph glyph-name="sliders-horizontal" unicode="&#xe85e;" d="M571 806a43 43 0 0 1-24-19l-4-8v-192l5-8a42 42 0 0 1 71 0c5 8 5 9 6 36l0 27 129 0c103 0 130 0 135 2 9 3 17 10 22 19 4 7 5 10 5 20 0 11-1 14-5 21a50 50 0 0 1-10 12c-12 9-11 9-149 9h-127l0 27c-1 26-1 28-5 35a42 42 0 0 1-49 19m-459-83a43 43 0 0 1-23-19c-4-7-5-10-5-21 0-10 1-13 5-20 5-9 13-16 22-19 10-3 310-3 319 0 10 3 18 10 23 19 4 7 5 10 5 20 0 11-1 14-5 21a43 43 0 0 1-24 19c-11 3-306 3-317 0m209-250a43 43 0 0 1-24-19c-4-8-4-9-5-35l-1-27h-85c-93 0-95 0-107-9-3-3-8-9-10-13-4-6-5-9-5-20 0-11 1-14 5-20 5-9 13-16 22-19 5-2 25-2 94-3l86 0 1-27c1-27 1-27 6-35a42 42 0 0 1 71 0l5 8v192l-4 8a42 42 0 0 1-49 19m166-84a43 43 0 0 1-23-19c-4-6-5-9-5-20 0-11 1-14 5-20 5-9 13-16 22-19 10-4 394-4 403 0 9 3 17 10 22 19 4 6 5 9 5 20 0 11-1 14-5 20a43 43 0 0 1-24 19c-11 4-389 4-400 0m167-250a43 43 0 0 1-24-19l-4-7v-192l5-9a42 42 0 0 1 72 0c5 8 5 9 5 36l1 27 87 0c68 0 88 1 93 2 9 4 17 10 22 19 4 7 5 10 5 21 0 10-1 13-5 20a50 50 0 0 1-10 12c-12 9-14 9-107 9h-85l-1 27c0 26-1 28-5 35a42 42 0 0 1-49 19m-542-83a43 43 0 0 1-23-19c-4-7-5-10-5-20 0-11 1-14 5-21 5-9 13-15 22-19 10-3 394-3 403 0 9 4 17 10 22 19 4 7 5 10 5 21 0 10-1 13-5 20a43 43 0 0 1-24 19c-11 3-389 3-400 0" horiz-adv-x="1000" />

<glyph glyph-name="sliders-vertical" unicode="&#xe85f;" d="M154 764a43 43 0 0 1-24-19l-4-7v-317l5-9c3-4 8-10 13-13 20-13 46-7 59 13l5 9v317l-5 7a42 42 0 0 1-49 19m333 0a43 43 0 0 1-23-19l-5-7 0-90-1-90h-23c-33 0-45-4-55-21-3-7-4-10-4-20 0-11 1-14 5-21 5-9 13-15 22-19 9-3 185-3 194 0 9 4 17 10 23 19 4 7 4 10 4 21 0 10 0 13-4 20-10 17-22 21-55 21h-23l-1 90 0 90-5 7a42 42 0 0 1-49 19m334 0a43 43 0 0 1-24-19l-4-7v-401l5-8a42 42 0 0 1 71 0l5 8v401l-4 7a42 42 0 0 1-49 19m-334-375a43 43 0 0 1-23-19l-5-7v-401l5-8a42 42 0 0 1 72 0l5 8v401l-5 7a42 42 0 0 1-49 19m-416-83a43 43 0 0 1-24-19c-4-7-4-10-4-20 0-11 0-14 4-21 5-9 13-15 23-19 4-1 14-2 30-2l25 0 0-131 1-132 5-8a42 42 0 0 1 72 0l5 8 0 132 0 131 25 0c16 0 27 1 31 2 9 4 17 10 22 19 4 7 5 10 5 21 0 10-1 13-5 20a43 43 0 0 1-24 19c-11 3-181 3-191 0m666-83a43 43 0 0 1-23-19c-4-7-5-10-5-21 0-10 1-13 5-20 5-9 13-16 22-19 4-1 15-2 31-2l25 0 0-90 1-90 5-8a42 42 0 0 1 71 0l5 8 1 90 0 90 25 0c16 0 26 1 30 2 10 3 18 10 23 19 4 7 5 10 5 20 0 11-1 14-5 21a43 43 0 0 1-24 19c-11 3-181 3-192 0" horiz-adv-x="1000" />

<glyph glyph-name="smartphone" unicode="&#xe860;" d="M271 807c-47-8-85-42-100-89l-3-12v-712l3-12a129 129 0 0 1 86-86l12-4h462l12 4a129 129 0 0 1 86 86l4 12v712l-4 12a129 129 0 0 1-85 85l-13 5-226 0c-124 0-230-1-234-1m450-84c12-4 23-15 27-27 2-7 2-48 2-346 0-281 0-339-2-345a43 43 0 0 0-19-25l-8-4h-442l-7 4a50 50 0 0 0-13 11c-10 13-9-11-9 358 0 381-1 350 13 363 13 14-3 13 236 13 187 0 215 0 222-2m-234-584a44 44 0 0 1-23-19c-4-6-5-9-5-20 0-11 1-14 5-20 22-37 78-22 78 20a41 41 0 0 1-23 37 49 49 0 0 1-32 2" horiz-adv-x="1000" />

<glyph glyph-name="smartphone-charging" unicode="&#xe861;" d="M271 807c-47-8-85-42-100-89l-3-12v-712l3-12a129 129 0 0 1 86-86l12-4h462l12 4a129 129 0 0 1 86 86l4 12v712l-4 12a129 129 0 0 1-85 85l-13 5-226 0c-124 0-230-1-234-1m450-84c12-4 23-15 27-27 2-7 2-48 2-346 0-281 0-339-2-345a43 43 0 0 0-19-25l-8-4h-442l-7 4a50 50 0 0 0-13 11c-10 13-9-11-9 358 0 381-1 350 13 363 13 14-3 13 236 13 187 0 215 0 222-2m-204-166a43 43 0 0 1-19-11c-7-8-118-176-121-183-6-18 3-41 21-50 8-4 10-4 57-5l50 0-35-53c-39-58-42-64-38-79 4-22 23-36 44-34 10 1 20 6 26 12 8 9 118 177 121 184a42 42 0 0 1-14 44c-10 9-12 9-64 10l-50 1 35 52c43 64 44 68 35 89-8 18-30 28-48 23" horiz-adv-x="1000" />

<glyph glyph-name="smartphone-nfc" unicode="&#xe862;" d="M813 717a42 42 0 0 1-25-38c0-9 2-13 19-46 19-39 31-67 41-101 40-128 36-273-11-397a709 709 0 0 0-35-78c-12-24-13-25-13-36 0-9 1-14 4-19 13-25 47-30 67-10 10 11 37 66 54 111 30 80 44 158 44 247 0 120-27 229-84 334-11 21-16 28-26 33-10 4-26 4-35 0m-710-78c-28-8-51-32-59-60-2-8-2-40-2-229 0-239-1-228 9-247 6-11 24-30 35-35 19-10 18-10 143-10 125 0 125 0 143 10 11 5 30 24 35 35 10 19 10 8 10 246 0 237 0 229-9 248-6 11-21 26-32 33-19 12-18 12-147 12-103 0-116-1-126-3m575-7c-21-6-33-21-34-40 0-9 1-12 13-36 26-51 37-85 46-140 4-27 4-105 0-132-9-55-20-89-46-140-12-24-13-27-13-35 1-26 25-46 49-41 11 2 20 8 26 16 10 13 35 69 46 101a631 631 0 0 1 18 74c6 34 7 54 7 91 0 72-11 133-38 199-10 25-28 62-35 69-9 11-27 17-39 14m-345-282v-208h-208v416h208v-208m195 192a42 42 0 0 1-25-25c-5-14-3-23 8-46 12-23 19-43 24-68 4-15 4-22 4-53s0-38-4-53a274 274 0 0 0-24-68c-11-23-13-32-8-46 5-16 22-28 39-28 10 0 21 5 29 12 12 13 32 59 41 94 9 34 10 44 10 89s-1 55-10 89c-9 35-29 82-41 94-12 11-27 15-43 9" horiz-adv-x="1000" />

<glyph glyph-name="smile" unicode="&#xe863;" d="M470 807l-23-2c-79-8-156-39-224-90-25-19-69-63-89-89-104-139-121-319-47-475 23-48 50-84 90-124 40-41 76-67 124-90 156-75 336-57 476 48 25 19 70 63 88 89 124 166 124 387 0 553-18 25-63 69-88 88-67 50-137 78-218 89-17 3-77 5-89 3m85-86c107-16 200-76 260-168 13-19 31-56 39-79 14-41 20-77 20-124 0-62-11-109-37-164-30-61-74-111-132-150-33-22-85-44-125-53a377 377 0 0 0-315 75c-63 50-110 124-129 202-8 32-10 53-10 90 0 62 11 109 37 164a374 374 0 0 0 219 192c29 9 53 14 91 18 13 1 65-1 82-3m-193-207a44 44 0 0 1-23-19c-4-6-5-9-5-20 0-11 1-14 5-20 22-37 78-22 78 20a41 41 0 0 1-23 37 49 49 0 0 1-32 2m250 0a44 44 0 0 1-23-19c-4-6-5-9-5-20 0-11 1-14 5-20 22-37 78-22 78 20a41 41 0 0 1-23 37 49 49 0 0 1-32 2m-292-208a42 42 0 0 1-26-52c6-17 35-47 69-69a255 255 0 0 1 64-31c28-9 41-11 73-11s45 2 73 11a255 255 0 0 1 64 31c34 22 64 52 69 69a42 42 0 0 1-28 53c-8 2-23 1-30-3-2-1-13-11-23-21-28-28-51-42-84-52-14-4-18-5-41-5s-27 1-40 5c-34 10-57 24-85 52-10 10-21 20-23 21-8 4-25 5-32 2" horiz-adv-x="1000" />

<glyph glyph-name="smile-plus" unicode="&#xe864;" d="M457 808c-125-12-237-73-314-170a460 460 0 0 1-95-360 465 465 0 0 1 42-129 448 448 0 0 1 132-161c28-21 45-32 77-47 53-26 107-41 167-46 46-4 95 0 145 13 172 42 305 182 339 357 6 32 8 50 8 95l0 44-5 8a42 42 0 0 1-73 0c-4-8-4-8-5-50-2-61-6-88-19-129-34-101-114-187-212-227-51-21-91-29-145-28-48 0-86 7-132 24-94 34-175 113-214 208-31 76-36 169-14 245 14 46 39 95 68 131 56 70 138 119 230 136 16 3 26 4 68 4l49 0 8 5a41 41 0 0 1-8 75c-10 3-75 5-97 2m322-2a43 43 0 0 1-24-19l-4-8-1-48 0-48h-44c-48 0-54-1-65-9-3-2-8-8-11-12-3-7-4-10-4-20 0-11 1-14 5-21 2-4 7-9 10-12 11-8 15-9 64-9l45 0 0-48 1-48 5-8a42 42 0 0 1 72 0l5 8 0 48 1 48 45 0c49 0 53 1 64 9 3 3 7 8 10 12 4 7 5 10 5 21 0 10-1 13-5 20a50 50 0 0 1-11 12c-10 8-17 9-65 9h-43l-1 48 0 48-5 8a42 42 0 0 1-49 19m-417-292a44 44 0 0 1-23-19c-4-6-5-9-5-20 0-11 1-14 5-20 22-37 78-22 78 20a41 41 0 0 1-23 37 49 49 0 0 1-32 2m250 0a44 44 0 0 1-23-19c-4-6-5-9-5-20 0-11 1-14 5-20 22-37 78-22 78 20a41 41 0 0 1-23 37 49 49 0 0 1-32 2m-292-208a42 42 0 0 1-26-52c6-17 35-47 69-69a255 255 0 0 1 64-31c28-9 41-11 73-11s45 2 73 11a255 255 0 0 1 64 31c34 22 64 52 69 69a42 42 0 0 1-28 53c-8 2-23 1-30-3-2-1-13-11-23-21-28-28-51-42-84-52-14-4-18-5-41-5s-27 1-40 5c-34 10-57 24-85 52-10 10-21 20-23 21-8 4-25 5-32 2" horiz-adv-x="1000" />

<glyph glyph-name="snail" unicode="&#xe865;" d="M736 764c-11-3-21-14-25-26-5-15-3-21 16-59l16-34-7-9c-16-18-26-43-27-72l-1-19-9 10c-60 68-139 111-229 124-26 5-80 5-107 0-82-12-155-49-213-107a355 355 0 0 1-69-98 371 371 0 0 1 0-331 371 371 0 0 1 89-117l11-9h-51c-56 0-61-1-72-9-4-3-8-9-11-13-4-6-4-9-4-20 0-11 0-14 4-21 6-9 16-17 25-19 4-1 96-2 279-1 301 0 280 0 324 11 132 33 238 140 272 271 11 44 11 41 11 211v154l-4 12c-5 17-14 33-23 43l-8 9 17 34c19 38 21 44 16 59a42 42 0 0 1-67 18c-4-4-10-14-23-39l-17-34-16 0-15 0-17 33c-18 36-23 43-37 48a41 41 0 0 1-28 0m-273-168c125-19 224-120 242-247 3-19 3-62 0-81a292 292 0 0 0-242-247c-18-3-56-5-71-3-14 2-14 2 9 7 94 21 173 92 206 184 13 35 17 60 17 98 0 39-5 63-23 97a209 209 0 0 1-133 106c-38 10-88 7-124-7a212 212 0 0 1-114-102 189 189 0 0 1-21-91c0-21 1-26 4-37a129 129 0 0 1 85-85c18-5 52-5 70 0a128 128 0 0 1 86 85c3 10 3 17 3 30 1 17 0 18-4 26a42 42 0 0 1-61 13c-10-8-15-17-17-32a108 108 0 0 0-3-17 45 45 0 0 0-18-21c-7-4-10-4-21-4s-13 0-20 4c-16 9-22 23-21 45a125 125 0 0 0 89 111c11 4 17 4 36 4 19 0 24 0 36-4a126 126 0 0 0 88-109c2-24-4-61-13-85-27-67-83-115-155-130-19-4-60-4-80 0-52 11-98 41-128 82-34 48-45 98-36 165 13 103 88 195 189 231 26 10 45 14 80 17 11 1 49-1 65-3m383 2a37 37 0 0 0 16-11c14-13 13-6 13-167-1-158-1-156-12-194a293 293 0 0 0-172-188c-11-4-20-8-21-8-1 0 5 7 13 15a375 375 0 0 1 106 221c2 17 3 48 3 159 0 156-1 149 12 162 12 12 26 15 42 11" horiz-adv-x="1000" />

</font>
</defs>
</svg>
